<?xml version="1.0" standalone="no"?>
<!DOCTYPE svg PUBLIC "-//W3C//DTD SVG 1.1//EN" "http://www.w3.org/Graphics/SVG/1.1/DTD/svg11.dtd" >
<svg xmlns="http://www.w3.org/2000/svg" xmlns:xlink="http://www.w3.org/1999/xlink" version="1.1">
<metadata>
Created by FontForge 20201107 at Tue Jun  3 21:26:31 2025
 By 
Copyright (c) 2015 by Fontfabric LLC. All rights reserved.
</metadata>
<defs>
<font id="MullerMedium" horiz-adv-x="1302" >
  <font-face 
    font-family="Muller Medium"
    font-weight="500"
    font-stretch="normal"
    units-per-em="2048"
    panose-1="0 0 0 0 0 0 0 0 0 0"
    ascent="1597"
    descent="-451"
    x-height="983"
    cap-height="1434"
    bbox="-328 -524 2611 1985"
    underline-thickness="102"
    underline-position="-255"
    unicode-range="U+0020-25CA"
  />
<missing-glyph horiz-adv-x="483" 
 />
    <glyph glyph-name="f_f" unicode="ff" horiz-adv-x="1452" 
d="M1483 1251q-84 43 -191 43q-44 0 -77 -7.5t-62.5 -26.5t-45 -56.5t-15.5 -93.5v-127h338v-192h-338v-791h-220v791h-430v-791h-219v791h-178v192h178v86q0 180 113.5 275.5t292.5 95.5q162 0 315 -78q98 125 295 125q130 0 244 -43v-193zM442 983h432v123q0 20 5 88
q-89 57 -220 57q-99 0 -158 -46t-59 -136v-86z" />
    <glyph glyph-name="f_f_i" unicode="ffi" horiz-adv-x="1861" 
d="M442 0h-219v791h-178v192h178v86q0 180 113.5 275.5t292.5 95.5q161 0 332 -82q114 129 333 129q158 0 318 -68v-200q-144 75 -289 75q-105 0 -168 -48.5t-63 -151.5v-111h628v-983h-219v791h-409v-791h-220v791h-430v-791zM442 1069v-86h432v113q0 52 9 98
q-99 57 -226 57q-98 0 -156.5 -46t-58.5 -136z" />
    <glyph glyph-name="f_f_l" unicode="ffl" horiz-adv-x="1882" 
d="M1270 1481q151 0 286 -60l185 37v-1458h-219v1245q-101 43 -215 43q-98 0 -156.5 -47t-58.5 -149v-109h288v-192h-288v-791h-220v791h-430v-791h-219v791h-178v192h178v86q0 180 113.5 275.5t292.5 95.5q161 0 332 -82q108 123 309 123zM874 983v113q0 52 9 98
q-99 57 -226 57q-98 0 -156.5 -46t-58.5 -136v-86h432z" />
    <glyph glyph-name=".notdef" horiz-adv-x="483" 
 />
    <glyph glyph-name=".null" horiz-adv-x="0" 
 />
    <glyph glyph-name="nonmarkingreturn" horiz-adv-x="682" 
 />
    <glyph glyph-name="space" unicode=" " horiz-adv-x="483" 
 />
    <glyph glyph-name="exclam" unicode="!" horiz-adv-x="509" 
d="M354 451h-198l-17 983h232zM391 109q0 -64 -39 -99t-98 -35q-58 0 -96.5 35t-38.5 99t38.5 98.5t96.5 34.5q59 0 98 -34.5t39 -98.5z" />
    <glyph glyph-name="quotedbl" unicode="&#x22;" horiz-adv-x="733" 
d="M594 1028h-154v406h201zM272 1028h-153v406h200z" />
    <glyph glyph-name="numbersign" unicode="#" horiz-adv-x="1370" 
d="M360 0h-213l78 332h-151v174h192l90 383h-180v174h223l78 332h213l-78 -332h322l78 332h213l-78 -332h149v-174h-190l-92 -383h180v-174h-221l-78 -332h-213l78 332h-322zM569 889l-92 -383h322l92 383h-322z" />
    <glyph glyph-name="dollar" unicode="$" horiz-adv-x="1216" 
d="M684 -266h-180v243q-234 25 -410 121v230q224 -142 506 -142q148 0 228.5 41.5t80.5 137.5q0 53 -27.5 93t-74.5 66t-107.5 47t-128 40t-134.5 40.5t-127.5 53t-107.5 73t-74.5 105.5t-27.5 145q0 167 112.5 265t291.5 120v246h180v-244q223 -16 371 -104v-224
q-87 58 -200.5 89.5t-229.5 29.5q-287 0 -287 -174q0 -55 35 -96t91.5 -64.5t129.5 -47.5t148.5 -43.5t148.5 -53t129.5 -75.5t91.5 -112.5t35 -162.5q0 -100 -35.5 -176.5t-100.5 -123.5t-146 -72t-181 -30v-241z" />
    <glyph glyph-name="percent" unicode="%" horiz-adv-x="1861" 
d="M604 -123h-182l838 1679h182zM770 1124q0 -157 -101.5 -246.5t-248.5 -89.5q-149 0 -251.5 89.5t-102.5 246.5t102.5 246.5t251.5 89.5q147 0 248.5 -89.5t101.5 -246.5zM254 1124q0 -69 42.5 -115t121.5 -46q78 0 119 46t41 115t-41 115.5t-119 46.5q-79 0 -121.5 -46.5
t-42.5 -115.5zM1796 309q0 -157 -101.5 -246.5t-248.5 -89.5q-149 0 -251.5 89.5t-102.5 246.5t102.5 246.5t251.5 89.5q147 0 248.5 -89.5t101.5 -246.5zM1282 309q0 -69 42.5 -115.5t121.5 -46.5q78 0 119 46.5t41 115.5t-41 115.5t-119 46.5q-79 0 -121.5 -46.5
t-42.5 -115.5z" />
    <glyph glyph-name="ampersand" unicode="&#x26;" horiz-adv-x="1464" 
d="M1194 254l268 -254h-260l-137 125q-203 -152 -479 -152q-226 0 -359 104.5t-133 270.5q0 229 293 400q-166 174 -166 333q0 160 132 269.5t329 109.5q180 0 294 -93.5t114 -242.5q0 -61 -24.5 -117t-59.5 -96.5t-90 -81.5t-99 -66.5t-104 -55.5l329 -312q83 132 80 289
h221q0 -237 -149 -430zM874 1112q0 73 -51.5 115.5t-142.5 42.5q-109 0 -176.5 -56.5t-67.5 -134.5q0 -61 36 -116.5t103 -124.5q46 21 81 39t78.5 46.5t71.5 55.5t48 62t20 71zM322 367q0 -94 74.5 -146.5t211.5 -52.5q173 0 307 94l-385 352q-208 -112 -208 -247z" />
    <glyph glyph-name="quotesingle" unicode="'" horiz-adv-x="411" 
d="M272 1028h-153v406h200z" />
    <glyph glyph-name="parenleft" unicode="(" horiz-adv-x="616" 
d="M383 1659h192q-122 -197 -191 -447t-69 -495t69 -495t191 -447h-192q-139 198 -220 448t-81 494t81 494t220 448z" />
    <glyph glyph-name="parenright" unicode=")" horiz-adv-x="616" 
d="M41 1659h192q139 -198 220.5 -448t81.5 -494t-81.5 -494t-220.5 -448h-192q122 197 191 447t69 495t-69 495t-191 447z" />
    <glyph glyph-name="asterisk" unicode="*" horiz-adv-x="935" 
d="M469 963l-143 -248l-168 116l178 201l-260 60l69 192l246 -106l-24 256h204l-24 -256l244 106l69 -192l-260 -60l178 -201l-166 -116z" />
    <glyph glyph-name="plus" unicode="+" horiz-adv-x="1097" 
d="M647 815h369v-197h-369v-368h-196v368h-369v197h369v369h196v-369z" />
    <glyph glyph-name="comma" unicode="," horiz-adv-x="485" 
d="M201 -303h-178l120 508h232z" />
    <glyph glyph-name="hyphen" unicode="-" horiz-adv-x="987" 
d="M121 602h745v-196h-745v196z" />
    <glyph glyph-name="period" unicode="." horiz-adv-x="473" 
d="M375 113q0 -66 -39 -101t-98 -35t-99.5 35t-40.5 101q0 63 40.5 97t99.5 34t98 -34t39 -97z" />
    <glyph glyph-name="slash" unicode="/" horiz-adv-x="890" 
d="M215 -121h-160l619 1675h160z" />
    <glyph glyph-name="zero" unicode="0" horiz-adv-x="1445" 
d="M98 696q0 124 23 232t72.5 198.5t122.5 155.5t176.5 101t230.5 36t230.5 -36t176.5 -101t122.5 -155.5t72.5 -198.5t23 -232t-23 -232t-72.5 -198.5t-122.5 -155.5t-176.5 -101t-230.5 -36t-230.5 36t-176.5 101t-122.5 155.5t-72.5 198.5t-23 232zM1112 696
q0 248 -96.5 379t-292.5 131q-389 0 -389 -510t389 -510q196 0 292.5 131t96.5 379z" />
    <glyph glyph-name="one" unicode="1" horiz-adv-x="909" 
d="M444 1393h172v-1182h248v-211h-758v211h279v942l-279 -104v215z" />
    <glyph glyph-name="two" unicode="2" horiz-adv-x="1198" 
d="M135 1278q206 141 463 141q220 0 354.5 -101t134.5 -290q0 -68 -23 -131t-57 -109.5t-89.5 -94.5t-102.5 -80t-113 -72q-165 -97 -205 -125q-130 -92 -145 -182q-2 -13 -2 -25l748 2v-211h-1010v106q0 53 8.5 101t21.5 87t37 77.5t44.5 66.5t55.5 59.5t60 52t66.5 47.5
t66.5 42t69 41q23 13 34 20q141 82 183 114q110 84 119 188q1 11 1 22q0 90 -72.5 137t-203.5 47q-228 0 -443 -155v225z" />
    <glyph glyph-name="three" unicode="3" horiz-adv-x="1212" 
d="M1061 1038q0 -108 -56.5 -190t-150.5 -113q52 -16 97 -44t83.5 -70t61 -104t22.5 -138q0 -82 -28 -150t-77 -115t-116.5 -79t-145.5 -47t-165 -15q-267 0 -484 93v225q109 -60 220 -84.5t245 -22.5q149 2 238.5 54.5t89.5 164.5q0 209 -295 209h-221v211l194 -2
q127 0 196 50.5t69 138.5q0 94 -76.5 146t-218.5 52q-219 0 -416 -114v223q193 102 446 102q218 0 353 -102.5t135 -278.5z" />
    <glyph glyph-name="four" unicode="4" horiz-adv-x="1329" 
d="M791 1393h239v-906h240v-202h-240v-285h-225v285h-756v198zM805 487v609l-496 -609h496z" />
    <glyph glyph-name="five" unicode="5" horiz-adv-x="1196" 
d="M188 1393h859v-209h-644l-20 -336q102 24 211 24q105 0 194.5 -24t164 -74.5t117 -138.5t42.5 -207q0 -145 -77.5 -250t-203 -155t-282.5 -50q-249 0 -447 95v219q86 -50 197 -76.5t223 -26.5q161 0 258 63.5t97 182.5q0 250 -379 250q-175 0 -355 -62z" />
    <glyph glyph-name="six" unicode="6" horiz-adv-x="1292" 
d="M334 770q191 115 405 115q92 0 177 -28.5t153.5 -82.5t110 -140.5t41.5 -193.5q0 -112 -41 -202t-111.5 -147t-163 -87.5t-198.5 -30.5q-209 0 -346.5 87t-200 243t-62.5 381q0 150 33 272.5t91.5 207.5t140 143t176.5 85t204 27q192 0 361 -82v-213q-157 88 -338 88
q-83 0 -153 -23t-130.5 -72t-99 -137.5t-49.5 -209.5zM336 563q20 -204 109 -296.5t243 -92.5q132 0 214.5 63t82.5 193q0 69 -25 119t-70 77.5t-98.5 40.5t-117.5 13q-192 0 -338 -117z" />
    <glyph glyph-name="seven" unicode="7" horiz-adv-x="1128" 
d="M53 1393h1034v-185l-577 -1208h-252l565 1184h-770v209z" />
    <glyph glyph-name="eight" unicode="8" horiz-adv-x="1337" 
d="M143 1047q0 71 31 135.5t92 118.5t164.5 86t235.5 32q122 0 223 -32.5t166 -87t101 -123.5t38 -144q3 -206 -184 -338q233 -117 233 -329q0 -77 -33 -145.5t-99.5 -124.5t-178.5 -89t-258 -33q-144 0 -257.5 34t-182.5 92.5t-104.5 131t-35.5 154.5q0 102 60 200.5
t168 164.5q-179 116 -179 297zM690 602q-127 38 -201 66q-81 -49 -122 -117.5t-41 -138.5q2 -111 92.5 -175.5t265.5 -64.5q141 0 232.5 51t91.5 133q0 27 -5.5 50t-19.5 42.5t-26.5 34t-38.5 29.5t-43 24t-52.5 22t-53.5 19t-60 19q-13 4 -19 6zM965 1004q0 94 -81.5 155.5
t-228.5 61.5q-131 0 -207.5 -49.5t-76.5 -122.5q0 -36 10.5 -65.5t32.5 -52t46 -39.5t60 -32t65.5 -25t71.5 -23q15 -5 23 -7q56 -15 149 -43q66 51 101 115t35 127z" />
    <glyph glyph-name="nine" unicode="9" horiz-adv-x="1292" 
d="M72 952q0 112 41 202t112.5 147t164 87.5t198.5 30.5q309 0 457.5 -184.5t148.5 -525.5q0 -149 -33 -271.5t-91.5 -208t-140 -144t-177 -85.5t-203.5 -27q-189 0 -361 82v213q157 -88 338 -88q84 0 154 23t130 72.5t98.5 138t49.5 209.5q-99 -60 -195.5 -86.5
t-209.5 -26.5q-73 0 -142 17.5t-131 53.5t-108 87.5t-73 124.5t-27 159zM604 1219q-132 0 -214.5 -63t-82.5 -193q0 -69 25.5 -119t70.5 -77.5t99 -40.5t119 -13q190 0 335 116q-20 204 -109 297t-243 93z" />
    <glyph glyph-name="colon" unicode=":" horiz-adv-x="522" 
d="M399 782q0 -65 -39.5 -99t-99.5 -34q-58 0 -97.5 34.5t-39.5 98.5t39.5 98.5t97.5 34.5q60 0 99.5 -34t39.5 -99zM399 113q0 -66 -39.5 -101t-99.5 -35q-58 0 -97.5 35t-39.5 101q0 63 39.5 97t97.5 34q60 0 99.5 -34t39.5 -97z" />
    <glyph glyph-name="semicolon" unicode=";" horiz-adv-x="579" 
d="M252 -303h-178l121 508h231zM426 848q0 -65 -39.5 -99t-99.5 -34q-58 0 -97.5 34.5t-39.5 98.5q0 65 39.5 99t97.5 34q61 0 100 -33.5t39 -99.5z" />
    <glyph glyph-name="less" unicode="&#x3c;" horiz-adv-x="1032" 
d="M879 506v-205l-791 307v219l791 306v-205l-586 -211z" />
    <glyph glyph-name="equal" unicode="=" horiz-adv-x="1159" 
d="M1030 813h-901v197h901v-197zM1030 426h-901v195h901v-195z" />
    <glyph glyph-name="greater" unicode="&#x3e;" horiz-adv-x="1032" 
d="M944 608l-790 -307v205l587 211l-587 211v205l790 -306v-219z" />
    <glyph glyph-name="question" unicode="?" horiz-adv-x="1013" 
d="M573 446h-213q0 73 36 145.5t87 131.5t102.5 115t87.5 116.5t36 114.5q0 178 -277 178q-183 0 -358 -104v213q187 104 395 104q100 0 184.5 -21t150 -62.5t103 -110t37.5 -158.5q0 -67 -27.5 -134t-68.5 -119t-89.5 -107.5t-89.5 -101t-68.5 -98.5t-27.5 -102zM606 113
q0 -66 -39 -101t-98 -35t-99 35t-40 101q0 63 40 97t99 34t98 -34t39 -97z" />
    <glyph glyph-name="at" unicode="@" horiz-adv-x="2150" 
d="M84 492q0 150 42 291.5t127 264.5t204 215t282.5 144.5t352.5 52.5q187 0 348 -54.5t272.5 -144t191 -206t117 -239.5t37.5 -245q0 -274 -115 -415.5t-309 -141.5q-122 0 -207.5 55t-119.5 156q-44 -78 -122.5 -121t-178.5 -43q-175 0 -284.5 123.5t-109.5 300.5
q0 116 47.5 213t139 156t209.5 59q97 0 170.5 -40.5t113.5 -102.5v123h189v-524q0 -88 37.5 -134.5t123.5 -46.5q104 0 153.5 105.5t49.5 277.5q0 97 -29.5 194t-92 187t-150 159t-212 110t-269.5 41q-185 0 -337.5 -63.5t-251.5 -170.5t-152.5 -245.5t-53.5 -290.5
q0 -148 44.5 -274t123.5 -216.5t187.5 -154.5t237 -95t271.5 -31q237 0 447 74v-198q-209 -74 -453 -74q-171 0 -329 39t-293 119.5t-235 194.5t-157 272t-57 344zM1282 565q-20 72 -84 123t-154 51q-101 0 -166 -71.5t-65 -180.5q0 -108 65 -178.5t166 -70.5q90 0 154 51
t84 123v153z" />
    <glyph glyph-name="A" unicode="A" horiz-adv-x="1490" 
d="M260 0h-248l606 1434h256l605 -1434h-246l-127 309h-719zM719 1126l-252 -612h557l-252 612q-23 67 -27 80q-8 -29 -26 -80z" />
    <glyph glyph-name="B" unicode="B" horiz-adv-x="1413" 
d="M174 1434h606q230 0 361 -92t131 -271q0 -123 -63 -203t-162 -112q42 -12 79.5 -30t75.5 -48.5t65.5 -68.5t44.5 -93t17 -119q0 -94 -35.5 -166t-90.5 -115t-130 -70t-144.5 -36.5t-144.5 -9.5h-610v1434zM1092 422q0 219 -297 219h-387v-436h354q56 0 96.5 3.5t87.5 16
t76.5 35t49.5 64t20 98.5zM1034 1034q0 197 -278 197h-348v-391l380 -2q109 0 177.5 48.5t68.5 147.5z" />
    <glyph glyph-name="C" unicode="C" horiz-adv-x="1341" 
d="M86 705q0 148 43 273.5t116 213t170.5 149t206.5 90.5t224 29q217 0 407 -94v-227q-151 106 -368 106q-84 0 -163.5 -19.5t-152 -62t-126.5 -104.5t-86 -153t-33 -201q0 -127 49.5 -228.5t131 -163t180 -93.5t204.5 -32q230 0 375 111v-231q-195 -95 -416 -95
q-113 0 -222 28.5t-207 89t-172.5 145t-118 206t-42.5 263.5z" />
    <glyph glyph-name="D" unicode="D" horiz-adv-x="1517" 
d="M174 1434h502q186 0 331 -53t237 -149.5t139 -226.5t47 -288t-47 -288t-139 -226.5t-237 -149.5t-331 -53h-502v1434zM1192 717q0 243 -132.5 373.5t-385.5 130.5h-266v-1008h266q253 0 385.5 130.5t132.5 373.5z" />
    <glyph glyph-name="E" unicode="E" horiz-adv-x="1269" 
d="M174 1434h987v-213h-753v-392h692v-213h-692v-403h766v-213h-1000v1434z" />
    <glyph glyph-name="F" unicode="F" horiz-adv-x="1236" 
d="M174 1434h989v-215h-755v-420h696v-217h-696v-582h-234v1434z" />
    <glyph glyph-name="G" unicode="G" horiz-adv-x="1441" 
d="M86 717q0 147 43 271t117 210t173 146t209 88t228 28q235 0 434 -94v-227q-165 106 -401 106q-109 0 -207 -30.5t-179 -92t-129 -166t-48 -239.5q0 -119 33.5 -212.5t87.5 -152t128 -97t149.5 -54t158.5 -15.5q128 0 215 41v543h227v-700q-218 -97 -457 -97
q-123 0 -234 25.5t-212.5 83t-175 142t-117 211t-43.5 282.5z" />
    <glyph glyph-name="H" unicode="H" horiz-adv-x="1570" 
d="M1163 1434h234v-1434h-234v610h-755v-610h-234v1434h234v-609h755v609z" />
    <glyph glyph-name="I" unicode="I" horiz-adv-x="581" 
d="M174 1434h234v-1434h-234v1434z" />
    <glyph glyph-name="J" unicode="J" horiz-adv-x="1052" 
d="M254 1434h637v-1016q0 -115 -38.5 -202t-107.5 -139t-155.5 -77t-190.5 -25q-216 0 -368 84v224q134 -86 319 -86q307 0 307 241v781h-403v215z" />
    <glyph glyph-name="K" unicode="K" horiz-adv-x="1388" 
d="M408 0h-234v1434h234v-598h282l400 598h264l-475 -699l512 -735h-265l-432 621h-286v-621z" />
    <glyph glyph-name="L" unicode="L" horiz-adv-x="1189" 
d="M174 1434h234v-1217h753v-217h-987v1434z" />
    <glyph glyph-name="M" unicode="M" horiz-adv-x="1859" 
d="M1475 1434h211v-1434h-234v1004l-453 -680h-139l-452 682v-1006h-234v1434h211l545 -822z" />
    <glyph glyph-name="N" unicode="N" horiz-adv-x="1570" 
d="M408 0h-234v1434h219l772 -1049q-2 49 -2 158v891h234v-1434h-219l-772 1049q2 -49 2 -156v-893z" />
    <glyph glyph-name="O" unicode="O" horiz-adv-x="1671" 
d="M82 717q0 115 29.5 222.5t91 202.5t149 165.5t212.5 111.5t272 41t271.5 -41t212 -111.5t149 -165.5t91 -202.5t29.5 -222.5t-29.5 -223t-91 -203t-149 -165.5t-212 -111.5t-271.5 -41t-272 41t-212.5 111.5t-149 165.5t-91 203t-29.5 223zM1352 717q0 105 -32.5 198
t-94.5 166.5t-162.5 116.5t-226.5 43t-226.5 -43t-162.5 -116.5t-95 -166.5t-33 -198t33 -198t95 -166.5t162.5 -116.5t226.5 -43t226.5 43t162.5 116.5t94.5 166.5t32.5 198z" />
    <glyph glyph-name="P" unicode="P" horiz-adv-x="1357" 
d="M174 1434h512q612 0 612 -471t-612 -471h-278v-492h-234v1434zM1061 963q0 76 -28 128t-80 79.5t-113.5 39t-141.5 11.5h-290v-516h290q80 0 141 11.5t113.5 39t80.5 79.5t28 128z" />
    <glyph glyph-name="Q" unicode="Q" horiz-adv-x="1671" 
d="M1589 23l-153 -148l-197 199q-175 -101 -403 -101q-147 0 -272 41t-212.5 111.5t-149 165.5t-91 203t-29.5 223t29.5 222.5t91 202.5t149 165.5t212.5 111.5t272 41t271.5 -41t212 -111.5t149 -165.5t91 -202.5t29.5 -222.5q0 -144 -47 -276.5t-139 -233.5zM319 717
q0 -105 33 -198t95 -166.5t162.5 -116.5t226.5 -43q124 0 233 51l-215 215l152 147l231 -231q115 136 115 342q0 105 -32.5 198t-94.5 167t-162.5 117.5t-226.5 43.5t-226.5 -43.5t-162.5 -117t-95 -167t-33 -198.5z" />
    <glyph glyph-name="R" unicode="R" horiz-adv-x="1435" 
d="M408 0h-234v1434h574q84 0 160.5 -13.5t149 -46.5t124.5 -83t84 -128.5t32 -177.5q0 -93 -27.5 -167.5t-76.5 -124.5t-109.5 -82t-134.5 -50l459 -561h-281l-430 537h-290v-537zM408 1221v-478h350q61 0 113 12t96 38.5t69 74t25 113.5t-25 114.5t-69.5 75t-96 38.5
t-112.5 12h-350z" />
    <glyph glyph-name="S" unicode="S" horiz-adv-x="1216" 
d="M98 1069q0 96 40.5 172t110.5 123t160 71.5t193 24.5q123 0 242 -28.5t207 -79.5v-224q-87 58 -200.5 89.5t-229.5 29.5q-285 0 -285 -174q0 -49 28 -88t75.5 -66t109 -50t129.5 -45t135.5 -47t129 -60.5t109 -80t75.5 -111t28 -148.5q0 -88 -29 -157.5t-79 -115.5
t-120 -76t-148 -43t-167 -12q-288 0 -508 125v230q222 -142 492 -142q322 0 322 179q0 53 -28 94.5t-75.5 70t-109 52.5t-129.5 46.5t-136 47t-129.5 59.5t-109 78.5t-75.5 109t-28 146.5z" />
    <glyph glyph-name="T" unicode="T" horiz-adv-x="1239" 
d="M29 1434h1181v-215h-473v-1219h-233v1219h-475v215z" />
    <glyph glyph-name="U" unicode="U" horiz-adv-x="1544" 
d="M1151 1434h233v-904q0 -121 -33.5 -217t-90 -159t-135.5 -104.5t-165.5 -59t-185.5 -17.5t-186.5 17.5t-167 59t-136.5 104.5t-90.5 159t-33.5 217v904h233v-891q0 -353 381 -353q176 0 276.5 84t100.5 269v891z" />
    <glyph glyph-name="V" unicode="V" horiz-adv-x="1433" 
d="M838 0h-242l-578 1434h252l447 -1164l446 1164h252z" />
    <glyph glyph-name="W" unicode="W" horiz-adv-x="2111" 
d="M1831 1434h256l-449 -1434h-256l-327 1069l-328 -1069h-256l-446 1434h254l325 -1160l348 1160h207l348 -1160z" />
    <glyph glyph-name="X" unicode="X" horiz-adv-x="1351" 
d="M272 0h-276l534 739l-503 695h276l373 -519l373 519h276l-506 -695l537 -739h-277l-403 565z" />
    <glyph glyph-name="Y" unicode="Y" horiz-adv-x="1386" 
d="M809 0h-234v526l-561 908h262l416 -695l418 695h262l-563 -908v-526z" />
    <glyph glyph-name="Z" unicode="Z" horiz-adv-x="1228" 
d="M1159 0h-1089v186l764 1033h-740v215h1036v-187l-763 -1030h792v-217z" />
    <glyph glyph-name="bracketleft" unicode="[" horiz-adv-x="628" 
d="M569 -225h-434v1884h434v-207h-209v-1470h209v-207z" />
    <glyph glyph-name="backslash" unicode="\" horiz-adv-x="890" 
d="M836 -121h-160l-619 1675h160z" />
    <glyph glyph-name="bracketright" unicode="]" horiz-adv-x="628" 
d="M494 -225h-435v207h209v1470h-209v207h435v-1884z" />
    <glyph glyph-name="asciicircum" unicode="^" horiz-adv-x="1142" 
d="M317 754h-239l397 680h193l397 -680h-240l-254 450z" />
    <glyph glyph-name="underscore" unicode="_" horiz-adv-x="958" 
d="M958 -328h-958v195h958v-195z" />
    <glyph glyph-name="grave" unicode="`" horiz-adv-x="444" 
d="M424 1571h-223l-217 303h254z" />
    <glyph glyph-name="a" unicode="a" horiz-adv-x="1126" 
d="M975 227q0 -71 72 -71q25 0 65 12v-158q-62 -24 -139 -24q-147 0 -197 114q-156 -127 -370 -127q-92 0 -168.5 32t-126.5 102t-50 167q0 90 39 157t104.5 103t139.5 53t156 17q115 0 256 -29v35q0 95 -67.5 152t-190.5 57q-184 0 -355 -76v201q191 66 377 66
q216 0 335.5 -106.5t119.5 -323.5v-353zM543 451q-50 0 -93.5 -8.5t-81 -26t-59.5 -50.5t-22 -77q0 -69 53 -107.5t131 -38.5q168 0 285 117v166q-123 25 -213 25z" />
    <glyph glyph-name="b" unicode="b" horiz-adv-x="1273" 
d="M137 1434h219v-578q138 154 355 154q144 0 256 -70.5t171.5 -188t59.5 -259.5t-59.5 -259.5t-171.5 -188.5t-256 -71q-230 0 -379 183v-156h-195v1434zM975 492q0 144 -85.5 234.5t-219.5 90.5q-108 0 -192 -59.5t-122 -145.5v-239q38 -88 122 -147.5t192 -59.5
q134 0 219.5 91t85.5 235z" />
    <glyph glyph-name="c" unicode="c" horiz-adv-x="1007" 
d="M76 483q0 132 47.5 236t126 166t172.5 93.5t196 31.5q176 0 304 -76v-201q-116 82 -273 82q-68 0 -128.5 -18.5t-111 -56t-80.5 -101.5t-30 -147q0 -81 29 -144.5t78.5 -101.5t110 -58t128.5 -20q155 0 287 76v-203q-142 -68 -326 -68q-80 0 -155.5 19t-144 60
t-119.5 100t-81 144t-30 187z" />
    <glyph glyph-name="d" unicode="d" horiz-adv-x="1273" 
d="M918 1434h219v-1434h-197v156q-145 -183 -377 -183q-144 0 -256.5 71t-171.5 188.5t-59 259.5t59 259.5t171 188t257 70.5q221 0 355 -154v578zM915 612q-38 86 -121 145.5t-192 59.5q-133 0 -219 -90.5t-86 -234.5t86 -235t219 -91q109 0 192 59.5t121 147.5v239z" />
    <glyph glyph-name="e" unicode="e" horiz-adv-x="1122" 
d="M76 492q0 103 30 190t79.5 146.5t114.5 101.5t134 61t139 19q82 0 152 -18.5t122 -51t92 -77t64.5 -97.5t36.5 -112.5t11 -121t-15 -122.5h-739q18 -124 124 -187t253 -63q170 0 311 69v-188q-142 -68 -352 -68q-115 0 -214.5 33t-176.5 96t-121.5 163.5t-44.5 226.5z
M840 573q5 35 -5.5 76.5t-37 82.5t-82 68t-131.5 27q-117 0 -200 -67.5t-89 -186.5h545z" />
    <glyph glyph-name="f" unicode="f" horiz-adv-x="800" 
d="M442 0h-219v791h-178v192h178v109q0 83 21 147.5t56 105.5t83.5 67.5t99 37t107.5 10.5q127 0 244 -43v-192q-84 43 -191 43q-44 0 -77 -7.5t-62.5 -27t-45.5 -57t-16 -93.5v-100h336v-192h-336v-791z" />
    <glyph glyph-name="g" unicode="g" horiz-adv-x="1273" 
d="M76 492q0 142 59 259.5t171 188t257 70.5q231 0 377 -181v154h197v-971q0 -128 -46 -225t-125 -153t-174.5 -83.5t-205.5 -27.5q-224 0 -406 92v201q173 -101 377 -101q77 0 139.5 15t113.5 47.5t79.5 90.5t28.5 138v125q-134 -158 -355 -158q-144 0 -256.5 71
t-171.5 188.5t-59 259.5zM915 612q-38 86 -121 145.5t-192 59.5q-133 0 -219 -90.5t-86 -234.5t86 -235t219 -91q109 0 192 55.5t121 136.5v254z" />
    <glyph glyph-name="h" unicode="h" horiz-adv-x="1204" 
d="M137 1434h219v-560q58 60 141 98t177 38q184 0 294.5 -112.5t110.5 -289.5v-608h-219v580q0 116 -63 175.5t-166 59.5q-86 0 -156.5 -47.5t-118.5 -116.5v-651h-219v1434z" />
    <glyph glyph-name="i" unicode="i" horiz-adv-x="501" 
d="M360 0h-219v983h219v-983zM385 1303q0 -64 -37.5 -98t-95.5 -34t-96.5 34t-38.5 98q0 62 39 95.5t96 33.5t95 -33.5t38 -95.5z" />
    <glyph glyph-name="j" unicode="j" horiz-adv-x="501" 
d="M360 -162q0 -88 -26.5 -151.5t-72.5 -98t-98.5 -50t-115.5 -15.5q-95 0 -162 28v193q47 -20 105 -20q151 0 151 151v1108h219v-1145zM385 1303q0 -64 -38.5 -98t-96.5 -34t-96.5 34t-38.5 98q0 62 39 95.5t96 33.5t96 -33.5t39 -95.5z" />
    <glyph glyph-name="k" unicode="k" horiz-adv-x="1091" 
d="M1090 0h-252l-324 408h-158v-408h-219v1434h219v-840h162l283 389h250l-357 -487z" />
    <glyph glyph-name="l" unicode="l" horiz-adv-x="501" 
d="M141 1495h219v-1495h-219v1495z" />
    <glyph glyph-name="m" unicode="m" horiz-adv-x="1810" 
d="M356 0h-219v983h195v-123q52 58 136 104t191 46t185.5 -42t122.5 -116q158 158 344 158q94 0 167 -33t117 -89.5t66 -126t22 -147.5v-614h-219v608q0 95 -52.5 151t-141.5 56q-133 0 -244 -133q4 -46 4 -68v-614h-219v608q0 95 -53 151t-142 56q-143 0 -260 -151v-664z
" />
    <glyph glyph-name="n" unicode="n" horiz-adv-x="1204" 
d="M332 848q59 71 147.5 116.5t194.5 45.5q184 0 294.5 -112.5t110.5 -289.5v-608h-219v580q0 116 -63 175.5t-166 59.5q-86 0 -156.5 -47.5t-118.5 -116.5v-651h-219v983h195v-135z" />
    <glyph glyph-name="o" unicode="o" horiz-adv-x="1216" 
d="M76 492q0 123 44.5 223.5t119 163.5t169.5 97t199 34q105 0 200 -34t170 -97t119 -163.5t44 -223.5t-44 -223.5t-119 -164t-170 -97.5t-200 -34q-104 0 -199 34t-169.5 97.5t-119 164t-44.5 223.5zM918 492q0 144 -86 230.5t-224 86.5q-139 0 -225 -86.5t-86 -230.5
t86 -231t225 -87q138 0 224 87t86 231z" />
    <glyph glyph-name="p" unicode="p" horiz-adv-x="1273" 
d="M332 829q150 181 379 181q144 0 256 -70.5t171.5 -188t59.5 -259.5t-59.5 -259.5t-171.5 -188.5t-256 -71q-221 0 -355 154v-578h-219v1434h195v-154zM975 492q0 144 -85.5 234.5t-219.5 90.5q-108 0 -192 -59.5t-122 -145.5v-239q38 -88 122 -147.5t192 -59.5
q134 0 219.5 91t85.5 235z" />
    <glyph glyph-name="q" unicode="q" horiz-adv-x="1273" 
d="M76 492q0 142 59 259.5t171 188t257 70.5q231 0 377 -181v154h197v-1434h-219v578q-134 -154 -355 -154q-144 0 -256.5 71t-171.5 188.5t-59 259.5zM915 612q-38 86 -121 145.5t-192 59.5q-133 0 -219 -90.5t-86 -234.5t86 -235t219 -91q109 0 192 59.5t121 147.5v239z
" />
    <glyph glyph-name="r" unicode="r" horiz-adv-x="774" 
d="M332 821q58 93 170 144t243 39v-216q-131 19 -238 -34t-151 -158v-596h-219v983h195v-162z" />
    <glyph glyph-name="s" unicode="s" horiz-adv-x="962" 
d="M86 717q0 77 33 135.5t90 92t124 49.5t144 16q189 0 354 -84v-193q-62 42 -157 69t-182 27q-76 0 -129.5 -25.5t-53.5 -80.5q0 -34 25.5 -60t67 -42t95 -33t108.5 -32.5t108.5 -40.5t95 -56.5t67 -82t25.5 -114.5q0 -78 -34 -136t-95 -90.5t-134 -47.5t-161 -15
q-107 0 -210 25.5t-175 69.5v194q74 -49 176.5 -76.5t198.5 -27.5q102 0 157.5 22t55.5 78q0 37 -33 64t-85 45.5t-115.5 36.5t-127 42.5t-115.5 57t-85 87t-33 126.5z" />
    <glyph glyph-name="t" unicode="t" horiz-adv-x="851" 
d="M209 1280l217 53v-350h356v-192h-356v-451q0 -95 44 -133.5t142 -38.5q104 0 199 39v-189q-118 -43 -264 -43q-152 0 -245 80t-93 244v492h-176v192h176v297z" />
    <glyph glyph-name="u" unicode="u" horiz-adv-x="1206" 
d="M850 983h219v-983h-195v135q-59 -71 -147.5 -116.5t-194.5 -45.5q-191 0 -298 111.5t-107 290.5v608h219v-580q0 -118 59 -176.5t170 -58.5q86 0 156.5 47.5t118.5 116.5v651z" />
    <glyph glyph-name="v" unicode="v" horiz-adv-x="1120" 
d="M858 983h240l-422 -983h-232l-419 983h237l299 -745z" />
    <glyph glyph-name="w" unicode="w" horiz-adv-x="1654" 
d="M1391 983h231l-326 -983h-235l-234 705l-233 -705h-234l-327 983h231l221 -743l240 743h205l241 -743z" />
    <glyph glyph-name="x" unicode="x" horiz-adv-x="1044" 
d="M758 983h250l-359 -481l379 -502h-250l-256 348l-256 -348h-250l379 502l-358 481h250l235 -332z" />
    <glyph glyph-name="y" unicode="y" horiz-adv-x="1128" 
d="M580 242l292 741h230l-461 -1116q-142 -342 -395 -342q-60 0 -129 16v187q49 -15 100 -15q159 0 244 230l20 49l-467 991h234z" />
    <glyph glyph-name="z" unicode="z" horiz-adv-x="968" 
d="M96 983h770v-164l-524 -633h559v-186h-831v164l524 633h-498v186z" />
    <glyph glyph-name="braceleft" unicode="{" horiz-adv-x="679" 
d="M598 -33v-192q-184 -39 -283.5 32.5t-99.5 227.5v432q0 86 -47 122.5t-111 31.5v192q64 -5 111 31t47 123v432q0 156 99.5 227.5t283.5 32.5v-193q-87 13 -122.5 -27.5t-35.5 -135.5v-361q0 -101 -41.5 -160t-101.5 -65q60 -6 101.5 -65t41.5 -160v-361q0 -95 35.5 -136
t122.5 -28z" />
    <glyph glyph-name="bar" unicode="|" horiz-adv-x="495" 
d="M360 -205h-225v1864h225v-1864z" />
    <glyph glyph-name="braceright" unicode="}" horiz-adv-x="679" 
d="M463 35q0 -156 -99.5 -227.5t-281.5 -32.5v192q87 -13 122.5 28t35.5 136v361q0 102 40.5 160.5t100.5 64.5q-60 6 -100.5 64.5t-40.5 160.5v361q0 95 -35.5 135.5t-122.5 27.5v193q182 39 281.5 -32.5t99.5 -227.5v-432q0 -87 48 -123t112 -31v-192q-66 5 -113 -31.5
t-47 -122.5v-432z" />
    <glyph glyph-name="asciitilde" unicode="~" horiz-adv-x="1224" 
d="M1094 805q12 -131 -54.5 -205t-183.5 -74q-62 0 -149.5 28t-170 56t-133.5 27q-77 0 -71 -86h-195q-10 131 57.5 204.5t178.5 73.5q67 0 153 -27t166 -54t135 -27q80 0 72 84h195z" />
    <glyph glyph-name="exclamdown" unicode="&#xa1;" horiz-adv-x="485" 
d="M358 -449h-231l16 984h199zM379 877q0 -63 -39 -97.5t-98 -34.5q-57 0 -96.5 34.5t-39.5 97.5q0 64 39 98.5t97 34.5q59 0 98 -34.5t39 -98.5z" />
    <glyph glyph-name="cent" unicode="&#xa2;" horiz-adv-x="1044" 
d="M723 172q120 15 219 72v-203q-106 -50 -219 -61v-226h-168v221q-94 10 -176 45.5t-148.5 96t-105.5 155t-39 211.5q0 120 39.5 217t106.5 159.5t149 99.5t174 47v223h168v-225q120 -16 209 -70v-201q-87 62 -209 78v-639zM555 803q-109 -25 -177.5 -103t-68.5 -208
q0 -128 68.5 -207.5t177.5 -104.5v623z" />
    <glyph glyph-name="sterling" unicode="&#xa3;" horiz-adv-x="1236" 
d="M1157 0h-1079v205h65q64 0 103 48t39 122v215h-170v192h170v152q0 124 40 220t108.5 152.5t153 84.5t181.5 28q174 0 317 -76v-204q-128 88 -278 88q-129 0 -214 -73.5t-85 -223.5v-148h428v-192h-428v-215q0 -127 -64 -170h713v-205z" />
    <glyph glyph-name="currency" unicode="&#xa4;" horiz-adv-x="1175" 
d="M371 373l-129 -129l-127 127l121 121q-66 98 -66 225q0 130 66 225l-121 123l127 127l129 -131q95 53 217 53t217 -53l131 131l125 -127l-123 -123q66 -98 66 -225t-66 -225l123 -121l-127 -127l-129 129q-97 -54 -217 -54t-217 54zM371 717q0 -96 58.5 -153.5
t158.5 -57.5q99 0 157 57.5t58 153.5t-58 154.5t-157 58.5q-100 0 -158.5 -58.5t-58.5 -154.5z" />
    <glyph glyph-name="yen" unicode="&#xa5;" horiz-adv-x="1415" 
d="M1102 1393h252l-434 -705h243v-168h-338v-110h338v-168h-338v-242h-233v242h-338v168h338v110h-338v168h244l-437 705h254l394 -660z" />
    <glyph glyph-name="brokenbar" unicode="&#xa6;" horiz-adv-x="524" 
d="M375 913h-225v746h225v-746zM375 -205h-225v746h225v-746z" />
    <glyph glyph-name="section" unicode="&#xa7;" horiz-adv-x="1046" 
d="M924 219q0 -78 -34 -136t-95 -90.5t-134 -47.5t-161 -15q-97 0 -196 25.5t-169 69.5v186q73 -49 170 -75.5t182 -26.5q105 0 160 21.5t55 82.5q0 28 -17 50t-52.5 39.5t-71.5 30.5t-92 30q-22 6 -33 10q-58 17 -97.5 31.5t-87.5 40t-76.5 55t-48.5 75t-20 101.5
q0 155 156 266q-135 81 -135 225q0 78 33 136t91 91.5t127.5 49.5t149.5 16q175 0 340 -84v-186q-63 40 -155.5 66t-169.5 26q-82 0 -137.5 -26t-55.5 -82q0 -30 16 -52.5t59.5 -43t72 -30t98.5 -30.5q22 -7 33 -10q47 -14 80.5 -25.5t74 -30t68 -40.5t52 -51t36.5 -67.5
t12 -84.5q0 -154 -155 -265q127 -79 127 -225zM504 559q4 -1 50.5 -15t70.5 -22q54 26 84 69.5t30 84.5q0 32 -13.5 56t-42.5 42t-55.5 29t-72.5 26q-53 20 -121 39q-57 -25 -89 -69t-32 -86q0 -31 14.5 -55t44 -42.5t58 -30t74.5 -26.5z" />
    <glyph glyph-name="dieresis" unicode="&#xa8;" horiz-adv-x="659" 
d="M676 1710q0 -54 -38.5 -92.5t-92.5 -38.5t-92.5 38.5t-38.5 92.5t38.5 92.5t92.5 38.5t92.5 -38.5t38.5 -92.5zM250 1710q0 -54 -38 -92.5t-93 -38.5q-54 0 -92.5 38.5t-38.5 92.5t38.5 92.5t92.5 38.5q55 0 93 -38.5t38 -92.5z" />
    <glyph glyph-name="copyright" unicode="&#xa9;" horiz-adv-x="1736" 
d="M1647 717q0 -144 -45 -267t-120.5 -209.5t-176 -148t-211 -90.5t-224.5 -29q-115 0 -226 29t-211 90.5t-176 148t-120.5 209.5t-44.5 267t44.5 267t120.5 209.5t176 147.5t211 90t226 29q114 0 224.5 -29t211 -90t176 -147.5t120.5 -209.5t45 -267zM1184 371
q-137 -70 -287 -70q-59 0 -116.5 14.5t-112.5 46t-96.5 77t-67 113t-25.5 148.5q0 110 38.5 195.5t103 136t141 76t160.5 25.5q152 0 262 -70v-152q-109 66 -230 66q-56 0 -105 -13.5t-92 -43t-68 -83t-25 -126.5q0 -70 24 -121.5t65.5 -79t88.5 -40.5t102 -13q121 0 240 63
v-149zM174 717q0 -160 60.5 -289.5t160.5 -210t222.5 -123.5t252.5 -43q103 0 203 26.5t189.5 81.5t157 132.5t107.5 187.5t40 238q0 129 -40 239t-107.5 187.5t-157 132t-189 80.5t-203.5 26t-203 -26t-188.5 -80.5t-157.5 -132t-107.5 -187.5t-39.5 -239z" />
    <glyph glyph-name="guillemotleft" unicode="&#xab;" horiz-adv-x="1073" 
d="M983 109h-227l-258 362v41l258 362h227l-270 -382zM561 109h-227l-258 362v41l258 362h227l-272 -382z" />
    <glyph glyph-name="logicalnot" unicode="&#xac;" horiz-adv-x="1181" 
d="M1042 524h-200v264h-733v195h933v-459z" />
    <glyph glyph-name="registered" unicode="&#xae;" horiz-adv-x="1732" 
d="M1640 717q0 -142 -44.5 -264.5t-119.5 -209t-174.5 -148.5t-210.5 -92t-225 -30t-224.5 30t-210 92t-175 148.5t-120 209t-44.5 264.5t44.5 264.5t120 209t175 148.5t210 91.5t224.5 29.5t225 -29.5t210.5 -91.5t174.5 -148.5t119.5 -209t44.5 -264.5zM174 717
q0 -129 39 -238.5t106 -186.5t156 -132t188.5 -81t204.5 -26q104 0 203.5 26t188.5 81t156 132t106 186.5t39 238.5t-39 239t-106 187.5t-156 132t-188.5 80.5t-203.5 26q-105 0 -204.5 -26t-188.5 -80.5t-156 -132t-106 -187.5t-39 -239zM721 319h-158v805h365
q44 0 86 -7.5t84 -26.5t73 -48t50.5 -76t19.5 -106q0 -96 -48 -154.5t-126 -82.5l223 -304h-180l-203 285h-22h-164v-285zM721 975v-234h190q34 0 56.5 3t51.5 13t44.5 35.5t15.5 65.5q0 39 -15.5 64.5t-44.5 36t-52 13.5t-56 3h-190z" />
    <glyph glyph-name="macron" unicode="&#xaf;" horiz-adv-x="737" 
d="M49 1774h639v-185h-639v185z" />
    <glyph glyph-name="degree" unicode="&#xb0;" horiz-adv-x="829" 
d="M754 1137q0 -152 -98 -240t-240 -88q-91 0 -167 37t-124.5 113t-48.5 178q0 148 100 235.5t240 87.5q141 0 239.5 -87.5t98.5 -235.5zM238 1137q0 -79 48.5 -125.5t127.5 -46.5t126.5 46.5t47.5 125.5q0 76 -48 122t-126 46q-79 0 -127.5 -46t-48.5 -122z" />
    <glyph glyph-name="plusminus" unicode="&#xb1;" horiz-adv-x="1179" 
d="M688 1282v-371h369v-194h-369v-369h-196v369h-369v194h369v371h196zM1057 0h-934v195h934v-195z" />
    <glyph glyph-name="acute" unicode="&#xb4;" horiz-adv-x="432" 
d="M258 1571h-223l186 303h254z" />
    <glyph glyph-name="paragraph" unicode="&#xb6;" horiz-adv-x="1396" 
d="M756 -451h-230v1012q-217 0 -340 115.5t-123 320.5t123 321t340 116h711v-1885h-229v1670h-252v-1670z" />
    <glyph glyph-name="periodcentered" unicode="&#xb7;" horiz-adv-x="514" 
d="M395 489q0 -64 -39 -98.5t-98 -34.5t-99 34.5t-40 98.5t40 99t99 35t98 -35t39 -99z" />
    <glyph glyph-name="cedilla" unicode="&#xb8;" horiz-adv-x="446" 
d="M137 0h170l-28 -111q97 0 149.5 -44t54.5 -124q0 -98 -80 -148t-202 -50q-119 0 -207 39v155q75 -43 176 -43q66 0 101.5 18t35.5 50q0 39 -69.5 52t-147.5 -1z" />
    <glyph glyph-name="guillemotright" unicode="&#xbb;" horiz-adv-x="1073" 
d="M739 109h-227l270 383l-270 382h227l258 -362v-41zM317 109h-227l270 383l-270 382h227l258 -362v-41z" />
    <glyph glyph-name="onequarter" unicode="&#xbc;" horiz-adv-x="1884" 
d="M1509 836h174v-527h134v-147h-134v-162h-161v162h-443v145zM1522 309v312l-254 -312h254zM473 -29h-80l938 1489h82zM326 1393h123v-684h147v-152h-492v152h179v512l-172 -62v156z" />
    <glyph glyph-name="onehalf" unicode="&#xbd;" horiz-adv-x="1804" 
d="M463 -29h-80l938 1489h82zM1139 766q118 86 284 86q136 0 218.5 -62t82.5 -180q0 -50 -19 -95t-55 -81.5t-71.5 -63t-83.5 -55.5q-12 -7 -42 -25t-42 -25t-35 -22t-33 -24t-23 -21.5t-18 -24t-6 -23.5l430 2v-152h-616v76q0 55 16 102.5t37.5 79t60 64.5t65.5 50.5
t73 44.5q15 9 22 13q5 3 26.5 15t27 15.5t23.5 14.5t23.5 15.5t19 15t18 17.5t13 17.5t11.5 20.5t5.5 22t2.5 25q0 92 -145 92q-142 0 -270 -96v162zM315 1393h123v-684h148v-152h-492v152h178v512l-172 -62v156z" />
    <glyph glyph-name="threequarters" unicode="&#xbe;" horiz-adv-x="1996" 
d="M600 -29h-80l938 1489h82zM1622 836h174v-527h133v-147h-133v-162h-162v162h-442v145zM1634 309v312l-254 -312h254zM682 1188q0 -62 -31 -109.5t-78 -68.5q59 -25 100.5 -76.5t41.5 -134.5t-47 -140.5t-119 -82.5t-162 -25q-163 0 -291 57v160q117 -66 277 -66
q182 0 182 113q0 107 -156 107h-137v151h117q143 0 143 96q0 99 -164 99q-127 0 -247 -72v160q117 63 270 63q136 0 218.5 -60.5t82.5 -170.5z" />
    <glyph glyph-name="questiondown" unicode="&#xbf;" horiz-adv-x="997" 
d="M932 -369q-183 -104 -395 -104q-100 0 -184.5 21t-150.5 63t-103.5 110.5t-37.5 157.5q0 67 27.5 134t68.5 119t89.5 107.5t89.5 101t68.5 98.5t27.5 102h213q0 -73 -36 -145.5t-87 -131.5t-102 -114.5t-87 -116t-36 -115.5q0 -178 276 -178q177 0 359 104v-213zM678 877
q0 -64 -40 -99t-99 -35t-98.5 35t-39.5 99t39.5 98.5t98.5 34.5t99 -34.5t40 -98.5z" />
    <glyph glyph-name="Agrave" unicode="&#xc0;" horiz-adv-x="1490" 
d="M260 0h-248l606 1434h256l605 -1434h-246l-127 309h-719zM719 1126l-252 -612h557l-252 612q-23 67 -27 80q-8 -29 -26 -80zM899 1571h-223l-217 303h254z" />
    <glyph glyph-name="Aacute" unicode="&#xc1;" horiz-adv-x="1490" 
d="M260 0h-248l606 1434h256l605 -1434h-246l-127 309h-719zM719 1126l-252 -612h557l-252 612q-23 67 -27 80q-8 -29 -26 -80zM809 1571h-223l186 303h254z" />
    <glyph glyph-name="Acircumflex" unicode="&#xc2;" horiz-adv-x="1490" 
d="M260 0h-248l606 1434h256l605 -1434h-246l-127 309h-719zM719 1126l-252 -612h557l-252 612q-23 67 -27 80q-8 -29 -26 -80zM651 1874h195l264 -307h-227l-133 155l-136 -155h-227z" />
    <glyph glyph-name="Atilde" unicode="&#xc3;" horiz-adv-x="1490" 
d="M260 0h-248l606 1434h256l605 -1434h-246l-127 309h-719zM719 1126l-252 -612h557l-252 612q-23 67 -27 80q-8 -29 -26 -80zM1094 1796q22 -114 -32 -182t-147 -68q-56 0 -117 21.5t-108.5 43t-71.5 21.5q-32 0 -46 -21.5t-9 -51.5h-170q-22 112 31.5 180.5t144.5 68.5
q55 0 116 -21.5t110 -43t73 -21.5q34 0 47.5 21t8.5 53h170z" />
    <glyph glyph-name="Adieresis" unicode="&#xc4;" horiz-adv-x="1490" 
d="M260 0h-248l606 1434h256l605 -1434h-246l-127 309h-719zM719 1126l-252 -612h557l-252 612q-23 67 -27 80q-8 -29 -26 -80zM1085 1710q0 -54 -38.5 -92.5t-92.5 -38.5t-92.5 38.5t-38.5 92.5t38.5 92.5t92.5 38.5t92.5 -38.5t38.5 -92.5zM659 1710q0 -54 -38 -92.5
t-93 -38.5q-54 0 -92.5 38.5t-38.5 92.5t38.5 92.5t92.5 38.5q55 0 93 -38.5t38 -92.5z" />
    <glyph glyph-name="Aring" unicode="&#xc5;" horiz-adv-x="1490" 
d="M260 0h-248l606 1434h256l605 -1434h-246l-127 309h-719zM719 1126l-252 -612h557l-252 612q-23 67 -27 80q-8 -29 -26 -80zM987 1751q0 -106 -71.5 -170.5t-172.5 -64.5q-103 0 -175 64.5t-72 170.5q0 105 72.5 169.5t174.5 64.5q101 0 172.5 -64.5t71.5 -169.5z
M641 1751q0 -46 29 -74t71 -28q43 0 72 28t29 74q0 43 -29.5 71.5t-71.5 28.5t-71 -28t-29 -72z" />
    <glyph glyph-name="AE" unicode="&#xc6;" horiz-adv-x="2056" 
d="M1251 616v-403h709v-213h-944v315h-586l-213 -315h-250l961 1434h1020v-213h-697v-392h635v-213h-635zM557 514h461v680z" />
    <glyph glyph-name="Ccedilla" unicode="&#xc7;" horiz-adv-x="1341" 
d="M1264 299v-231q-157 -77 -326 -91l-25 -88q98 0 151.5 -44t53.5 -124q1 -98 -78.5 -148t-203.5 -50q-117 0 -205 39v155q75 -43 174 -43q67 0 103 18t36 50q0 39 -70 52t-147 -1l43 184q-106 9 -204.5 43t-186.5 96t-153 145t-103 197.5t-37 246.5q0 148 43 273.5
t116 213t170.5 149t206.5 90.5t224 29q217 0 407 -94v-227q-151 106 -368 106q-84 0 -163.5 -19.5t-152 -62t-126.5 -104.5t-86 -153t-33 -201q0 -127 49.5 -228.5t131 -163t180 -93.5t204.5 -32q230 0 375 111z" />
    <glyph glyph-name="Egrave" unicode="&#xc8;" horiz-adv-x="1269" 
d="M174 1434h987v-213h-753v-392h692v-213h-692v-403h766v-213h-1000v1434zM838 1571h-224l-217 303h254z" />
    <glyph glyph-name="Eacute" unicode="&#xc9;" horiz-adv-x="1269" 
d="M174 1434h987v-213h-753v-392h692v-213h-692v-403h766v-213h-1000v1434zM748 1571h-224l187 303h254z" />
    <glyph glyph-name="Ecircumflex" unicode="&#xca;" horiz-adv-x="1269" 
d="M174 1434h987v-213h-753v-392h692v-213h-692v-403h766v-213h-1000v1434zM590 1874h194l265 -307h-228l-133 155l-135 -155h-227z" />
    <glyph glyph-name="Edieresis" unicode="&#xcb;" horiz-adv-x="1269" 
d="M174 1434h987v-213h-753v-392h692v-213h-692v-403h766v-213h-1000v1434zM1024 1710q0 -54 -38.5 -92.5t-92.5 -38.5t-92.5 38.5t-38.5 92.5t38.5 92.5t92.5 38.5t92.5 -38.5t38.5 -92.5zM598 1710q0 -54 -38 -92.5t-93 -38.5q-54 0 -92.5 38.5t-38.5 92.5t38.5 92.5
t92.5 38.5q55 0 93 -38.5t38 -92.5z" />
    <glyph glyph-name="Igrave" unicode="&#xcc;" horiz-adv-x="581" 
d="M174 1434h234v-1434h-234v1434zM449 1571h-224l-217 303h254z" />
    <glyph glyph-name="Iacute" unicode="&#xcd;" horiz-adv-x="581" 
d="M174 1434h234v-1434h-234v1434zM358 1571h-223l187 303h253z" />
    <glyph glyph-name="Icircumflex" unicode="&#xce;" horiz-adv-x="581" 
d="M174 1434h234v-1434h-234v1434zM201 1874h194l264 -307h-227l-133 155l-135 -155h-227z" />
    <glyph glyph-name="Idieresis" unicode="&#xcf;" horiz-adv-x="581" 
d="M174 1434h234v-1434h-234v1434zM635 1710q0 -54 -38.5 -92.5t-92.5 -38.5t-92.5 38.5t-38.5 92.5t38.5 92.5t92.5 38.5t92.5 -38.5t38.5 -92.5zM209 1710q0 -54 -38 -92.5t-93 -38.5q-54 0 -92.5 38.5t-38.5 92.5t38.5 92.5t92.5 38.5q55 0 93 -38.5t38 -92.5z" />
    <glyph glyph-name="Eth" unicode="&#xd0;" horiz-adv-x="1529" 
d="M188 1434h500q186 0 331.5 -53t237.5 -149.5t139.5 -226.5t47.5 -288t-47.5 -288t-139.5 -226.5t-237.5 -149.5t-331.5 -53h-500v621h-161v188h161v625zM422 213h266q253 0 385.5 130.5t132.5 373.5t-132.5 373.5t-385.5 130.5h-266v-412h379v-188h-379v-408z" />
    <glyph glyph-name="Ntilde" unicode="&#xd1;" horiz-adv-x="1570" 
d="M408 0h-234v1434h219l772 -1049q-2 49 -2 158v891h234v-1434h-219l-772 1049q2 -49 2 -156v-893zM1137 1796q22 -114 -32 -182t-147 -68q-56 0 -116.5 21.5t-108 43t-71.5 21.5q-32 0 -46.5 -21.5t-9.5 -51.5h-170q-22 112 31.5 180.5t144.5 68.5q55 0 116 -21.5t110 -43
t73 -21.5q34 0 47.5 21t8.5 53h170z" />
    <glyph glyph-name="Ograve" unicode="&#xd2;" horiz-adv-x="1671" 
d="M82 717q0 115 29.5 222.5t91 202.5t149 165.5t212.5 111.5t272 41t271.5 -41t212 -111.5t149 -165.5t91 -202.5t29.5 -222.5t-29.5 -223t-91 -203t-149 -165.5t-212 -111.5t-271.5 -41t-272 41t-212.5 111.5t-149 165.5t-91 203t-29.5 223zM1352 717q0 105 -32.5 198
t-94.5 166.5t-162.5 116.5t-226.5 43t-226.5 -43t-162.5 -116.5t-95 -166.5t-33 -198t33 -198t95 -166.5t162.5 -116.5t226.5 -43t226.5 43t162.5 116.5t94.5 166.5t32.5 198zM991 1571h-223l-217 303h254z" />
    <glyph glyph-name="Oacute" unicode="&#xd3;" horiz-adv-x="1671" 
d="M82 717q0 115 29.5 222.5t91 202.5t149 165.5t212.5 111.5t272 41t271.5 -41t212 -111.5t149 -165.5t91 -202.5t29.5 -222.5t-29.5 -223t-91 -203t-149 -165.5t-212 -111.5t-271.5 -41t-272 41t-212.5 111.5t-149 165.5t-91 203t-29.5 223zM1352 717q0 105 -32.5 198
t-94.5 166.5t-162.5 116.5t-226.5 43t-226.5 -43t-162.5 -116.5t-95 -166.5t-33 -198t33 -198t95 -166.5t162.5 -116.5t226.5 -43t226.5 43t162.5 116.5t94.5 166.5t32.5 198zM901 1571h-223l186 303h254z" />
    <glyph glyph-name="Ocircumflex" unicode="&#xd4;" horiz-adv-x="1671" 
d="M82 717q0 115 29.5 222.5t91 202.5t149 165.5t212.5 111.5t272 41t271.5 -41t212 -111.5t149 -165.5t91 -202.5t29.5 -222.5t-29.5 -223t-91 -203t-149 -165.5t-212 -111.5t-271.5 -41t-272 41t-212.5 111.5t-149 165.5t-91 203t-29.5 223zM1352 717q0 105 -32.5 198
t-94.5 166.5t-162.5 116.5t-226.5 43t-226.5 -43t-162.5 -116.5t-95 -166.5t-33 -198t33 -198t95 -166.5t162.5 -116.5t226.5 -43t226.5 43t162.5 116.5t94.5 166.5t32.5 198zM743 1874h195l264 -307h-227l-133 155l-135 -155h-228z" />
    <glyph glyph-name="Otilde" unicode="&#xd5;" horiz-adv-x="1671" 
d="M82 717q0 115 29.5 222.5t91 202.5t149 165.5t212.5 111.5t272 41t271.5 -41t212 -111.5t149 -165.5t91 -202.5t29.5 -222.5t-29.5 -223t-91 -203t-149 -165.5t-212 -111.5t-271.5 -41t-272 41t-212.5 111.5t-149 165.5t-91 203t-29.5 223zM1352 717q0 105 -32.5 198
t-94.5 166.5t-162.5 116.5t-226.5 43t-226.5 -43t-162.5 -116.5t-95 -166.5t-33 -198t33 -198t95 -166.5t162.5 -116.5t226.5 -43t226.5 43t162.5 116.5t94.5 166.5t32.5 198zM1186 1796q22 -114 -31.5 -182t-146.5 -68q-56 0 -117 21.5t-108.5 43t-71.5 21.5
q-32 0 -46.5 -21.5t-9.5 -51.5h-170q-22 112 32 180.5t145 68.5q55 0 116 -21.5t110 -43t73 -21.5q66 0 55 74h170z" />
    <glyph glyph-name="Odieresis" unicode="&#xd6;" horiz-adv-x="1671" 
d="M82 717q0 115 29.5 222.5t91 202.5t149 165.5t212.5 111.5t272 41t271.5 -41t212 -111.5t149 -165.5t91 -202.5t29.5 -222.5t-29.5 -223t-91 -203t-149 -165.5t-212 -111.5t-271.5 -41t-272 41t-212.5 111.5t-149 165.5t-91 203t-29.5 223zM1352 717q0 105 -32.5 198
t-94.5 166.5t-162.5 116.5t-226.5 43t-226.5 -43t-162.5 -116.5t-95 -166.5t-33 -198t33 -198t95 -166.5t162.5 -116.5t226.5 -43t226.5 43t162.5 116.5t94.5 166.5t32.5 198zM1178 1710q0 -54 -38.5 -92.5t-92.5 -38.5t-93 38.5t-39 92.5t39 92.5t93 38.5t92.5 -38.5
t38.5 -92.5zM752 1710q0 -54 -38 -92.5t-93 -38.5q-54 0 -93 38.5t-39 92.5t39 92.5t93 38.5q55 0 93 -38.5t38 -92.5z" />
    <glyph glyph-name="multiply" unicode="&#xd7;" horiz-adv-x="1015" 
d="M508 590l-260 -260l-129 131l258 258l-258 260l129 129l260 -260l258 260l131 -129l-260 -260l260 -258l-131 -131z" />
    <glyph glyph-name="Oslash" unicode="&#xd8;" horiz-adv-x="1671" 
d="M1511 1532l-174 -240q123 -103 187.5 -254.5t64.5 -320.5q0 -115 -29.5 -223t-91 -203t-149 -165.5t-212 -111.5t-271.5 -41q-220 0 -387 90l-117 -161h-182l176 245q-120 101 -182 251.5t-62 318.5q0 115 29.5 222.5t91 202.5t149 165.5t212.5 111.5t272 41
q209 0 378 -86l115 158h182zM836 1241q-126 0 -226.5 -43t-162.5 -116.5t-95 -166.5t-33 -198q0 -110 37 -210.5t109 -170.5l616 852q-109 53 -245 53zM582 248q110 -55 252 -55q126 0 227 43t163.5 116.5t95 166.5t32.5 198q0 113 -38.5 214t-113.5 173z" />
    <glyph glyph-name="Ugrave" unicode="&#xd9;" horiz-adv-x="1544" 
d="M1151 1434h233v-904q0 -121 -33.5 -217t-90 -159t-135.5 -104.5t-165.5 -59t-185.5 -17.5t-186.5 17.5t-167 59t-136.5 104.5t-90.5 159t-33.5 217v904h233v-891q0 -353 381 -353q176 0 276.5 84t100.5 269v891zM924 1571h-224l-217 303h254z" />
    <glyph glyph-name="Uacute" unicode="&#xda;" horiz-adv-x="1544" 
d="M1151 1434h233v-904q0 -121 -33.5 -217t-90 -159t-135.5 -104.5t-165.5 -59t-185.5 -17.5t-186.5 17.5t-167 59t-136.5 104.5t-90.5 159t-33.5 217v904h233v-891q0 -353 381 -353q176 0 276.5 84t100.5 269v891zM834 1571h-224l187 303h254z" />
    <glyph glyph-name="Ucircumflex" unicode="&#xdb;" horiz-adv-x="1544" 
d="M1151 1434h233v-904q0 -121 -33.5 -217t-90 -159t-135.5 -104.5t-165.5 -59t-185.5 -17.5t-186.5 17.5t-167 59t-136.5 104.5t-90.5 159t-33.5 217v904h233v-891q0 -353 381 -353q176 0 276.5 84t100.5 269v891zM676 1874h194l265 -307h-228l-133 155l-135 -155h-227z
" />
    <glyph glyph-name="Udieresis" unicode="&#xdc;" horiz-adv-x="1544" 
d="M1151 1434h233v-904q0 -121 -33.5 -217t-90 -159t-135.5 -104.5t-165.5 -59t-185.5 -17.5t-186.5 17.5t-167 59t-136.5 104.5t-90.5 159t-33.5 217v904h233v-891q0 -353 381 -353q176 0 276.5 84t100.5 269v891zM1110 1710q0 -54 -38.5 -92.5t-92.5 -38.5t-92.5 38.5
t-38.5 92.5t38.5 92.5t92.5 38.5t92.5 -38.5t38.5 -92.5zM684 1710q0 -54 -38 -92.5t-93 -38.5q-54 0 -92.5 38.5t-38.5 92.5t38.5 92.5t92.5 38.5q55 0 93 -38.5t38 -92.5z" />
    <glyph glyph-name="Yacute" unicode="&#xdd;" horiz-adv-x="1386" 
d="M809 0h-234v526l-561 908h262l416 -695l418 695h262l-563 -908v-526zM758 1571h-223l186 303h254z" />
    <glyph glyph-name="Thorn" unicode="&#xde;" horiz-adv-x="1353" 
d="M408 1188h278q612 0 612 -471t-612 -471h-278v-246h-234v1434h234v-246zM408 459h290q79 0 140.5 11.5t114 39.5t80.5 80t28 127q0 76 -28 128t-80 79.5t-113.5 39t-141.5 11.5h-290v-516z" />
    <glyph glyph-name="germandbls" unicode="&#xdf;" horiz-adv-x="1216" 
d="M1155 297q0 -81 -35.5 -145t-94.5 -102t-130.5 -57.5t-149.5 -19.5q-128 0 -247 50v180q104 -49 207 -49q98 0 162.5 39.5t64.5 121.5q0 45 -31 92.5t-75 89t-87.5 82t-74.5 86.5t-31 89q0 40 15 77.5t36.5 68.5t43.5 62.5t37 73t15 86.5q0 72 -52.5 115t-141.5 43
q-104 0 -167 -59t-63 -164v-1057h-219v1012q0 213 119 329.5t330 118.5q103 1 184.5 -27.5t128 -74.5t70.5 -98.5t24 -106.5q0 -60 -24 -117.5t-52.5 -94t-52.5 -78.5t-24 -75q0 -36 32.5 -76.5t78.5 -81t92.5 -87t79 -111t32.5 -135.5z" />
    <glyph glyph-name="agrave" unicode="&#xe0;" horiz-adv-x="1126" 
d="M975 227q0 -71 72 -71q25 0 65 12v-158q-62 -24 -139 -24q-147 0 -197 114q-156 -127 -370 -127q-92 0 -168.5 32t-126.5 102t-50 167q0 90 39 157t104.5 103t139.5 53t156 17q115 0 256 -29v35q0 95 -67.5 152t-190.5 57q-184 0 -355 -76v201q191 66 377 66
q216 0 335.5 -106.5t119.5 -323.5v-353zM543 451q-50 0 -93.5 -8.5t-81 -26t-59.5 -50.5t-22 -77q0 -69 53 -107.5t131 -38.5q168 0 285 117v166q-123 25 -213 25zM668 1126h-224l-217 304h254z" />
    <glyph glyph-name="aacute" unicode="&#xe1;" horiz-adv-x="1126" 
d="M975 227q0 -71 72 -71q25 0 65 12v-158q-62 -24 -139 -24q-147 0 -197 114q-156 -127 -370 -127q-92 0 -168.5 32t-126.5 102t-50 167q0 90 39 157t104.5 103t139.5 53t156 17q115 0 256 -29v35q0 95 -67.5 152t-190.5 57q-184 0 -355 -76v201q191 66 377 66
q216 0 335.5 -106.5t119.5 -323.5v-353zM543 451q-50 0 -93.5 -8.5t-81 -26t-59.5 -50.5t-22 -77q0 -69 53 -107.5t131 -38.5q168 0 285 117v166q-123 25 -213 25zM578 1126h-224l187 304h254z" />
    <glyph glyph-name="acircumflex" unicode="&#xe2;" horiz-adv-x="1126" 
d="M975 227q0 -71 72 -71q25 0 65 12v-158q-62 -24 -139 -24q-147 0 -197 114q-156 -127 -370 -127q-92 0 -168.5 32t-126.5 102t-50 167q0 90 39 157t104.5 103t139.5 53t156 17q115 0 256 -29v35q0 95 -67.5 152t-190.5 57q-184 0 -355 -76v201q191 66 377 66
q216 0 335.5 -106.5t119.5 -323.5v-353zM543 451q-50 0 -93.5 -8.5t-81 -26t-59.5 -50.5t-22 -77q0 -69 53 -107.5t131 -38.5q168 0 285 117v166q-123 25 -213 25zM420 1430h194l265 -308h-228l-133 156l-135 -156h-227z" />
    <glyph glyph-name="atilde" unicode="&#xe3;" horiz-adv-x="1126" 
d="M975 227q0 -71 72 -71q25 0 65 12v-158q-62 -24 -139 -24q-147 0 -197 114q-156 -127 -370 -127q-92 0 -168.5 32t-126.5 102t-50 167q0 90 39 157t104.5 103t139.5 53t156 17q115 0 256 -29v35q0 95 -67.5 152t-190.5 57q-184 0 -355 -76v201q191 66 377 66
q216 0 335.5 -106.5t119.5 -323.5v-353zM543 451q-50 0 -93.5 -8.5t-81 -26t-59.5 -50.5t-22 -77q0 -69 53 -107.5t131 -38.5q168 0 285 117v166q-123 25 -213 25zM862 1352q22 -114 -31.5 -182t-146.5 -68q-56 0 -117 21.5t-108.5 43t-71.5 21.5q-32 0 -46 -22t-9 -52h-170
q-22 112 31.5 181t144.5 69q55 0 116 -21.5t110 -43t73 -21.5q66 0 55 74h170z" />
    <glyph glyph-name="adieresis" unicode="&#xe4;" horiz-adv-x="1126" 
d="M975 227q0 -71 72 -71q25 0 65 12v-158q-62 -24 -139 -24q-147 0 -197 114q-156 -127 -370 -127q-92 0 -168.5 32t-126.5 102t-50 167q0 90 39 157t104.5 103t139.5 53t156 17q115 0 256 -29v35q0 95 -67.5 152t-190.5 57q-184 0 -355 -76v201q191 66 377 66
q216 0 335.5 -106.5t119.5 -323.5v-353zM543 451q-50 0 -93.5 -8.5t-81 -26t-59.5 -50.5t-22 -77q0 -69 53 -107.5t131 -38.5q168 0 285 117v166q-123 25 -213 25zM854 1266q0 -54 -38.5 -92.5t-92.5 -38.5t-92.5 38.5t-38.5 92.5t38.5 92.5t92.5 38.5t92.5 -38.5
t38.5 -92.5zM428 1266q0 -54 -38 -92.5t-93 -38.5q-54 0 -92.5 38.5t-38.5 92.5t38.5 92.5t92.5 38.5q55 0 93 -38.5t38 -92.5z" />
    <glyph glyph-name="aring" unicode="&#xe5;" horiz-adv-x="1126" 
d="M975 227q0 -71 72 -71q25 0 65 12v-158q-62 -24 -139 -24q-147 0 -197 114q-156 -127 -370 -127q-92 0 -168.5 32t-126.5 102t-50 167q0 90 39 157t104.5 103t139.5 53t156 17q115 0 256 -29v35q0 95 -67.5 152t-190.5 57q-184 0 -355 -76v201q191 66 377 66
q216 0 335.5 -106.5t119.5 -323.5v-353zM543 451q-50 0 -93.5 -8.5t-81 -26t-59.5 -50.5t-22 -77q0 -69 53 -107.5t131 -38.5q168 0 285 117v166q-123 25 -213 25zM756 1307q0 -106 -71.5 -171t-172.5 -65q-103 0 -175.5 65t-72.5 171q0 105 73 169t175 64q101 0 172.5 -64
t71.5 -169zM410 1307q0 -46 29 -74.5t71 -28.5t71 28.5t29 74.5q0 44 -29 72t-71 28t-71 -28t-29 -72z" />
    <glyph glyph-name="ae" unicode="&#xe6;" horiz-adv-x="1826" 
d="M915 143q-198 -170 -489 -170q-101 0 -181.5 32t-132 101.5t-51.5 167.5q0 74 26.5 131.5t69.5 94.5t104 61t125 33.5t136 9.5q131 0 269 -29v33q0 209 -293 209q-179 0 -355 -74v201q191 66 379 66q299 0 396 -181q67 88 167 134.5t207 46.5q81 0 149.5 -18.5
t119.5 -51.5t90 -78t62.5 -98.5t34.5 -113.5t9 -122.5t-16 -124.5h-740q18 -120 124.5 -181.5t254.5 -61.5q165 0 306 69v-182q-145 -74 -355 -74q-127 0 -236 43.5t-180 126.5zM287 289q0 -71 55.5 -107.5t142.5 -36.5q205 0 353 123q-30 71 -39 160q-154 25 -234 25
q-76 0 -135.5 -14t-101 -52.5t-41.5 -97.5zM1288 827q-118 0 -200.5 -69t-88.5 -193h545q4 30 -1 63.5t-22.5 69.5t-46 64t-76.5 46.5t-110 18.5z" />
    <glyph glyph-name="ccedilla" unicode="&#xe7;" horiz-adv-x="1007" 
d="M932 244v-203q-115 -52 -244 -64l-22 -88q97 0 149.5 -44t54.5 -124q1 -98 -78.5 -148t-203.5 -50q-117 0 -205 39v155q72 -43 174 -43q66 0 102.5 18t36.5 50q0 39 -70.5 52t-148.5 -1l43 187q-89 12 -167 48.5t-141 97t-99.5 152.5t-36.5 205q0 132 47.5 236t126 166
t172.5 93.5t196 31.5q176 0 304 -76v-201q-116 82 -273 82q-68 0 -128.5 -18.5t-111 -56t-80.5 -101.5t-30 -147q0 -81 29 -144.5t78.5 -101.5t110 -58t128.5 -20q155 0 287 76z" />
    <glyph glyph-name="egrave" unicode="&#xe8;" horiz-adv-x="1122" 
d="M76 492q0 103 30 190t79.5 146.5t114.5 101.5t134 61t139 19q82 0 152 -18.5t122 -51t92 -77t64.5 -97.5t36.5 -112.5t11 -121t-15 -122.5h-739q18 -124 124 -187t253 -63q170 0 311 69v-188q-142 -68 -352 -68q-115 0 -214.5 33t-176.5 96t-121.5 163.5t-44.5 226.5z
M840 573q5 35 -5.5 76.5t-37 82.5t-82 68t-131.5 27q-117 0 -200 -67.5t-89 -186.5h545zM729 1120h-223l-217 303h254z" />
    <glyph glyph-name="eacute" unicode="&#xe9;" horiz-adv-x="1122" 
d="M76 492q0 103 30 190t79.5 146.5t114.5 101.5t134 61t139 19q82 0 152 -18.5t122 -51t92 -77t64.5 -97.5t36.5 -112.5t11 -121t-15 -122.5h-739q18 -124 124 -187t253 -63q170 0 311 69v-188q-142 -68 -352 -68q-115 0 -214.5 33t-176.5 96t-121.5 163.5t-44.5 226.5z
M840 573q5 35 -5.5 76.5t-37 82.5t-82 68t-131.5 27q-117 0 -200 -67.5t-89 -186.5h545zM639 1120h-223l186 303h254z" />
    <glyph glyph-name="ecircumflex" unicode="&#xea;" horiz-adv-x="1122" 
d="M76 492q0 103 30 190t79.5 146.5t114.5 101.5t134 61t139 19q82 0 152 -18.5t122 -51t92 -77t64.5 -97.5t36.5 -112.5t11 -121t-15 -122.5h-739q18 -124 124 -187t253 -63q170 0 311 69v-188q-142 -68 -352 -68q-115 0 -214.5 33t-176.5 96t-121.5 163.5t-44.5 226.5z
M840 573q5 35 -5.5 76.5t-37 82.5t-82 68t-131.5 27q-117 0 -200 -67.5t-89 -186.5h545zM481 1423h195l264 -307h-227l-133 156l-136 -156h-227z" />
    <glyph glyph-name="edieresis" unicode="&#xeb;" horiz-adv-x="1122" 
d="M76 492q0 103 30 190t79.5 146.5t114.5 101.5t134 61t139 19q82 0 152 -18.5t122 -51t92 -77t64.5 -97.5t36.5 -112.5t11 -121t-15 -122.5h-739q18 -124 124 -187t253 -63q170 0 311 69v-188q-142 -68 -352 -68q-115 0 -214.5 33t-176.5 96t-121.5 163.5t-44.5 226.5z
M840 573q5 35 -5.5 76.5t-37 82.5t-82 68t-131.5 27q-117 0 -200 -67.5t-89 -186.5h545zM915 1260q0 -54 -38.5 -93t-92.5 -39t-92.5 39t-38.5 93t38.5 92.5t92.5 38.5t92.5 -38.5t38.5 -92.5zM489 1260q0 -54 -38 -93t-93 -39q-54 0 -92.5 39t-38.5 93t38.5 92.5t92.5 38.5
q55 0 93 -38.5t38 -92.5z" />
    <glyph glyph-name="igrave" unicode="&#xec;" horiz-adv-x="501" 
d="M360 0h-219v983h219v-983zM401 1120h-208l-170 303h239z" />
    <glyph glyph-name="iacute" unicode="&#xed;" horiz-adv-x="501" 
d="M141 983h219v-983h-219v983zM315 1120h-223l187 303h253z" />
    <glyph glyph-name="icircumflex" unicode="&#xee;" horiz-adv-x="501" 
d="M158 1409h194l215 -293h-213l-100 141l-98 -141h-213zM141 983h219v-983h-219v983z" />
    <glyph glyph-name="idieresis" unicode="&#xef;" horiz-adv-x="501" 
d="M549 1260q0 -50 -35.5 -85.5t-85.5 -35.5t-85.5 35.5t-35.5 85.5q0 49 35.5 84.5t85.5 35.5t85.5 -35.5t35.5 -84.5zM193 1260q0 -50 -35 -85.5t-86 -35.5q-50 0 -85.5 35.5t-35.5 85.5q0 49 35.5 84.5t85.5 35.5q51 0 86 -35t35 -85zM141 983h219v-983h-219v983z" />
    <glyph glyph-name="eth" unicode="&#xf0;" horiz-adv-x="1206" 
d="M1114 561q0 -149 -39 -262.5t-109.5 -184t-164 -106t-207.5 -35.5q-146 0 -262.5 56t-185 165.5t-68.5 254.5q0 200 130 327t318 127q127 0 230 -50t149 -134q-5 35 -8 47q-25 143 -101.5 246t-191.5 162l-178 -179l-111 111l129 129q-116 25 -235 25v184q196 0 379 -66
l166 166l110 -110l-127 -127q173 -105 275 -289t102 -457zM299 449q0 -122 78.5 -201.5t216.5 -79.5q132 0 203 72t86 186q-3 124 -84.5 208.5t-216.5 84.5q-131 0 -207 -77.5t-76 -192.5z" />
    <glyph glyph-name="ntilde" unicode="&#xf1;" horiz-adv-x="1204" 
d="M332 848q59 71 147.5 116.5t194.5 45.5q184 0 294.5 -112.5t110.5 -289.5v-608h-219v580q0 116 -63 175.5t-166 59.5q-86 0 -156.5 -47.5t-118.5 -116.5v-651h-219v983h195v-135zM952 1346q22 -114 -31.5 -182t-146.5 -68q-56 0 -117 21.5t-108.5 43t-71.5 21.5
q-32 0 -46 -22t-9 -52h-170q-22 112 31.5 181t144.5 69q55 0 116 -21.5t110 -43t73 -21.5q66 0 55 74h170z" />
    <glyph glyph-name="ograve" unicode="&#xf2;" horiz-adv-x="1216" 
d="M76 492q0 123 44.5 223.5t119 163.5t169.5 97t199 34q105 0 200 -34t170 -97t119 -163.5t44 -223.5t-44 -223.5t-119 -164t-170 -97.5t-200 -34q-104 0 -199 34t-169.5 97.5t-119 164t-44.5 223.5zM918 492q0 144 -86 230.5t-224 86.5q-139 0 -225 -86.5t-86 -230.5
t86 -231t225 -87q138 0 224 87t86 231zM764 1114h-223l-217 303h254z" />
    <glyph glyph-name="oacute" unicode="&#xf3;" horiz-adv-x="1216" 
d="M76 492q0 123 44.5 223.5t119 163.5t169.5 97t199 34q105 0 200 -34t170 -97t119 -163.5t44 -223.5t-44 -223.5t-119 -164t-170 -97.5t-200 -34q-104 0 -199 34t-169.5 97.5t-119 164t-44.5 223.5zM918 492q0 144 -86 230.5t-224 86.5q-139 0 -225 -86.5t-86 -230.5
t86 -231t225 -87q138 0 224 87t86 231zM674 1114h-223l186 303h254z" />
    <glyph glyph-name="ocircumflex" unicode="&#xf4;" horiz-adv-x="1216" 
d="M76 492q0 123 44.5 223.5t119 163.5t169.5 97t199 34q105 0 200 -34t170 -97t119 -163.5t44 -223.5t-44 -223.5t-119 -164t-170 -97.5t-200 -34q-104 0 -199 34t-169.5 97.5t-119 164t-44.5 223.5zM918 492q0 144 -86 230.5t-224 86.5q-139 0 -225 -86.5t-86 -230.5
t86 -231t225 -87q138 0 224 87t86 231zM516 1417h195l264 -307h-227l-134 156l-135 -156h-227z" />
    <glyph glyph-name="otilde" unicode="&#xf5;" horiz-adv-x="1216" 
d="M76 492q0 123 44.5 223.5t119 163.5t169.5 97t199 34q105 0 200 -34t170 -97t119 -163.5t44 -223.5t-44 -223.5t-119 -164t-170 -97.5t-200 -34q-104 0 -199 34t-169.5 97.5t-119 164t-44.5 223.5zM918 492q0 144 -86 230.5t-224 86.5q-139 0 -225 -86.5t-86 -230.5
t86 -231t225 -87q138 0 224 87t86 231zM958 1339q22 -114 -31.5 -181.5t-146.5 -67.5q-56 0 -117 21.5t-108.5 43t-71.5 21.5q-32 0 -46 -22t-9 -52h-170q-22 112 31.5 181t144.5 69q55 0 116 -21.5t110 -43t73 -21.5q66 0 55 73h170z" />
    <glyph glyph-name="odieresis" unicode="&#xf6;" horiz-adv-x="1216" 
d="M76 492q0 123 44.5 223.5t119 163.5t169.5 97t199 34q105 0 200 -34t170 -97t119 -163.5t44 -223.5t-44 -223.5t-119 -164t-170 -97.5t-200 -34q-104 0 -199 34t-169.5 97.5t-119 164t-44.5 223.5zM918 492q0 144 -86 230.5t-224 86.5q-139 0 -225 -86.5t-86 -230.5
t86 -231t225 -87q138 0 224 87t86 231zM950 1253q0 -54 -38.5 -92.5t-92.5 -38.5t-92.5 38.5t-38.5 92.5t38.5 92.5t92.5 38.5t92.5 -38.5t38.5 -92.5zM524 1253q0 -54 -38 -92.5t-93 -38.5q-54 0 -92.5 38.5t-38.5 92.5t38.5 92.5t92.5 38.5q55 0 93 -38.5t38 -92.5z" />
    <glyph glyph-name="divide" unicode="&#xf7;" horiz-adv-x="1196" 
d="M1090 618h-984v197h984v-197zM735 258q0 -65 -38.5 -99t-98.5 -34q-59 0 -98 34.5t-39 98.5q0 66 39 99.5t98 33.5q61 0 99 -33.5t38 -99.5zM735 1174q0 -65 -38.5 -99.5t-98.5 -34.5q-59 0 -98 35t-39 99q0 66 39 99.5t98 33.5q61 0 99 -33.5t38 -99.5z" />
    <glyph glyph-name="oslash" unicode="&#xf8;" horiz-adv-x="1216" 
d="M1079 1112l-135 -207q197 -142 197 -413q0 -123 -44 -223.5t-119 -164t-170 -97.5t-200 -34q-127 0 -239 50l-99 -148h-133l133 205q-194 143 -194 412q0 123 44.5 223.5t119 163.5t169.5 97t199 34q130 0 240 -49l98 151h133zM608 809q-139 0 -225 -86.5t-86 -230.5
q0 -146 88 -234l346 528q-61 23 -123 23zM481 199q61 -25 129 -25q138 0 224 87t86 231q0 147 -91 235z" />
    <glyph glyph-name="ugrave" unicode="&#xf9;" horiz-adv-x="1206" 
d="M850 983h219v-983h-195v135q-59 -71 -147.5 -116.5t-194.5 -45.5q-191 0 -298 111.5t-107 290.5v608h219v-580q0 -118 59 -176.5t170 -58.5q86 0 156.5 47.5t118.5 116.5v651zM758 1120h-223l-218 303h254z" />
    <glyph glyph-name="uacute" unicode="&#xfa;" horiz-adv-x="1206" 
d="M850 983h219v-983h-195v135q-59 -71 -147.5 -116.5t-194.5 -45.5q-191 0 -298 111.5t-107 290.5v608h219v-580q0 -118 59 -176.5t170 -58.5q86 0 156.5 47.5t118.5 116.5v651zM668 1120h-224l187 303h254z" />
    <glyph glyph-name="ucircumflex" unicode="&#xfb;" horiz-adv-x="1206" 
d="M850 983h219v-983h-195v135q-59 -71 -147.5 -116.5t-194.5 -45.5q-191 0 -298 111.5t-107 290.5v608h219v-580q0 -118 59 -176.5t170 -58.5q86 0 156.5 47.5t118.5 116.5v651zM510 1423h195l264 -307h-228l-133 156l-135 -156h-227z" />
    <glyph glyph-name="udieresis" unicode="&#xfc;" horiz-adv-x="1206" 
d="M850 983h219v-983h-195v135q-59 -71 -147.5 -116.5t-194.5 -45.5q-191 0 -298 111.5t-107 290.5v608h219v-580q0 -118 59 -176.5t170 -58.5q86 0 156.5 47.5t118.5 116.5v651zM944 1260q0 -54 -38.5 -93t-92.5 -39t-92.5 39t-38.5 93t38.5 92.5t92.5 38.5t92.5 -38.5
t38.5 -92.5zM518 1260q0 -54 -38 -93t-93 -39q-54 0 -92.5 39t-38.5 93t38.5 92.5t92.5 38.5q55 0 93 -38.5t38 -92.5z" />
    <glyph glyph-name="yacute" unicode="&#xfd;" horiz-adv-x="1128" 
d="M580 242l292 741h230l-461 -1116q-142 -342 -395 -342q-60 0 -129 16v187q49 -15 100 -15q159 0 244 230l20 49l-467 991h234zM612 1120h-223l186 303h254z" />
    <glyph glyph-name="thorn" unicode="&#xfe;" horiz-adv-x="1273" 
d="M137 1434h219v-584q140 160 359 160q143 0 254.5 -71t170 -188.5t58.5 -258.5q0 -142 -59.5 -260t-171 -188.5t-252.5 -70.5q-217 0 -359 158v-582h-219v1885zM975 492q0 144 -85.5 234.5t-219.5 90.5q-109 0 -192.5 -60t-121.5 -149v-233q41 -87 125 -146.5t189 -60.5
q133 0 219 90t86 234z" />
    <glyph glyph-name="ydieresis" unicode="&#xff;" horiz-adv-x="1128" 
d="M580 242l292 741h230l-461 -1116q-142 -342 -395 -342q-60 0 -129 16v187q49 -15 100 -15q159 0 244 230l20 49l-467 991h234zM889 1260q0 -54 -38.5 -93t-92.5 -39t-92.5 39t-38.5 93t38.5 92.5t92.5 38.5t92.5 -38.5t38.5 -92.5zM463 1260q0 -54 -38 -93t-93 -39
q-54 0 -92.5 39t-38.5 93t38.5 92.5t92.5 38.5q55 0 93 -38.5t38 -92.5z" />
    <glyph glyph-name="Amacron" unicode="&#x100;" horiz-adv-x="1490" 
d="M260 0h-248l606 1434h256l605 -1434h-246l-127 309h-719zM719 1126l-252 -612h557l-252 612q-23 67 -27 80q-8 -29 -26 -80zM424 1774h639v-185h-639v185z" />
    <glyph glyph-name="amacron" unicode="&#x101;" horiz-adv-x="1126" 
d="M975 227q0 -71 72 -71q25 0 65 12v-158q-62 -24 -139 -24q-147 0 -197 114q-156 -127 -370 -127q-92 0 -168.5 32t-126.5 102t-50 167q0 90 39 157t104.5 103t139.5 53t156 17q115 0 256 -29v35q0 95 -67.5 152t-190.5 57q-184 0 -355 -76v201q191 66 377 66
q216 0 335.5 -106.5t119.5 -323.5v-353zM543 451q-50 0 -93.5 -8.5t-81 -26t-59.5 -50.5t-22 -77q0 -69 53 -107.5t131 -38.5q168 0 285 117v166q-123 25 -213 25zM193 1329h638v-184h-638v184z" />
    <glyph glyph-name="Abreve" unicode="&#x102;" horiz-adv-x="1490" 
d="M260 0h-248l606 1434h256l605 -1434h-246l-127 309h-719zM719 1126l-252 -612h557l-252 612q-23 67 -27 80q-8 -29 -26 -80zM1044 1642q-126 -88 -301 -88q-177 0 -303 88v189q135 -88 303 -88q166 0 301 88v-189z" />
    <glyph glyph-name="abreve" unicode="&#x103;" horiz-adv-x="1126" 
d="M975 227q0 -71 72 -71q25 0 65 12v-158q-62 -24 -139 -24q-147 0 -197 114q-156 -127 -370 -127q-92 0 -168.5 32t-126.5 102t-50 167q0 90 39 157t104.5 103t139.5 53t156 17q115 0 256 -29v35q0 95 -67.5 152t-190.5 57q-184 0 -355 -76v201q191 66 377 66
q216 0 335.5 -106.5t119.5 -323.5v-353zM543 451q-50 0 -93.5 -8.5t-81 -26t-59.5 -50.5t-22 -77q0 -69 53 -107.5t131 -38.5q168 0 285 117v166q-123 25 -213 25zM813 1198q-126 -88 -301 -88q-177 0 -303 88v188q135 -88 303 -88q166 0 301 88v-188z" />
    <glyph glyph-name="Aogonek" unicode="&#x104;" horiz-adv-x="1490" 
d="M1313 -231q-1 -35 20.5 -55.5t59.5 -20.5q50 0 104 35v-160q-71 -45 -170 -45q-103 0 -160 54.5t-57 137.5q2 68 41 142.5t115 142.5h-33l-127 309h-719l-127 -309h-248l606 1434h256l605 -1434q-80 -54 -124 -117t-42 -114zM719 1126l-252 -612h557l-252 612
q-18 42 -27 80q-10 -43 -26 -80z" />
    <glyph glyph-name="aogonek" unicode="&#x105;" horiz-adv-x="1126" 
d="M1112 168v-158q-79 -54 -123.5 -118t-42.5 -115q-1 -35 20 -54.5t60 -21.5q39 3 84 23v-158q-63 -35 -149 -35q-103 0 -160.5 55t-57.5 138q2 70 39.5 141t110.5 131q-79 24 -117 104q-156 -127 -370 -127q-92 0 -168.5 32t-126.5 102t-50 167q0 90 39 157t104.5 103
t139.5 53t156 17q115 0 256 -29v35q0 95 -67.5 152t-190.5 57q-184 0 -355 -76v201q191 66 377 66q216 0 335.5 -106.5t119.5 -323.5v-353q0 -71 72 -71q25 0 65 12zM471 143q168 0 285 117v166q-123 25 -213 25q-50 0 -93.5 -8.5t-81 -26t-59.5 -50.5t-22 -77
q0 -69 53 -107.5t131 -38.5z" />
    <glyph glyph-name="Cacute" unicode="&#x106;" horiz-adv-x="1341" 
d="M86 705q0 148 43 273.5t116 213t170.5 149t206.5 90.5t224 29q217 0 407 -94v-227q-151 106 -368 106q-84 0 -163.5 -19.5t-152 -62t-126.5 -104.5t-86 -153t-33 -201q0 -127 49.5 -228.5t131 -163t180 -93.5t204.5 -32q230 0 375 111v-231q-195 -95 -416 -95
q-113 0 -222 28.5t-207 89t-172.5 145t-118 206t-42.5 263.5zM887 1571h-223l186 303h254z" />
    <glyph glyph-name="cacute" unicode="&#x107;" horiz-adv-x="1007" 
d="M76 483q0 132 47.5 236t126 166t172.5 93.5t196 31.5q176 0 304 -76v-201q-116 82 -273 82q-68 0 -128.5 -18.5t-111 -56t-80.5 -101.5t-30 -147q0 -81 29 -144.5t78.5 -101.5t110 -58t128.5 -20q155 0 287 76v-203q-142 -68 -326 -68q-80 0 -155.5 19t-144 60
t-119.5 100t-81 144t-30 187zM682 1120h-223l186 303h254z" />
    <glyph glyph-name="Cdotaccent" unicode="&#x10a;" horiz-adv-x="1341" 
d="M86 705q0 148 43 273.5t116 213t170.5 149t206.5 90.5t224 29q217 0 407 -94v-227q-151 106 -368 106q-84 0 -163.5 -19.5t-152 -62t-126.5 -104.5t-86 -153t-33 -201q0 -127 49.5 -228.5t131 -163t180 -93.5t204.5 -32q230 0 375 111v-231q-195 -95 -416 -95
q-113 0 -222 28.5t-207 89t-172.5 145t-118 206t-42.5 263.5zM672 1700q0 66 41 101.5t102 35.5q62 0 102.5 -35.5t40.5 -101.5q0 -69 -40.5 -105t-102.5 -36q-61 0 -102 36.5t-41 104.5z" />
    <glyph glyph-name="cdotaccent" unicode="&#x10b;" horiz-adv-x="1007" 
d="M76 483q0 132 47.5 236t126 166t172.5 93.5t196 31.5q176 0 304 -76v-201q-116 82 -273 82q-68 0 -128.5 -18.5t-111 -56t-80.5 -101.5t-30 -147q0 -81 29 -144.5t78.5 -101.5t110 -58t128.5 -20q155 0 287 76v-203q-142 -68 -326 -68q-80 0 -155.5 19t-144 60
t-119.5 100t-81 144t-30 187zM467 1249q0 66 41 101.5t102 35.5q62 0 103 -35.5t41 -101.5q0 -69 -41 -105t-103 -36q-61 0 -102 36.5t-41 104.5z" />
    <glyph glyph-name="Ccaron" unicode="&#x10c;" horiz-adv-x="1341" 
d="M86 705q0 148 43 273.5t116 213t170.5 149t206.5 90.5t224 29q217 0 407 -94v-227q-151 106 -368 106q-84 0 -163.5 -19.5t-152 -62t-126.5 -104.5t-86 -153t-33 -201q0 -127 49.5 -228.5t131 -163t180 -93.5t204.5 -32q230 0 375 111v-231q-195 -95 -416 -95
q-113 0 -222 28.5t-207 89t-172.5 145t-118 206t-42.5 263.5zM1194 1866l-270 -307h-195l-270 307h227l141 -162l140 162h227z" />
    <glyph glyph-name="ccaron" unicode="&#x10d;" horiz-adv-x="1007" 
d="M76 483q0 132 47.5 236t126 166t172.5 93.5t196 31.5q176 0 304 -76v-201q-116 82 -273 82q-68 0 -128.5 -18.5t-111 -56t-80.5 -101.5t-30 -147q0 -81 29 -144.5t78.5 -101.5t110 -58t128.5 -20q155 0 287 76v-203q-142 -68 -326 -68q-80 0 -155.5 19t-144 60
t-119.5 100t-81 144t-30 187zM989 1415l-270 -307h-195l-270 307h227l142 -162l139 162h227z" />
    <glyph glyph-name="Dcaron" unicode="&#x10e;" horiz-adv-x="1517" 
d="M174 1434h502q186 0 331 -53t237 -149.5t139 -226.5t47 -288t-47 -288t-139 -226.5t-237 -149.5t-331 -53h-502v1434zM1192 717q0 243 -132.5 373.5t-385.5 130.5h-266v-1008h266q253 0 385.5 130.5t132.5 373.5zM1071 1866l-270 -307h-195l-270 307h227l142 -162
l139 162h227z" />
    <glyph glyph-name="dcaron" unicode="&#x10f;" horiz-adv-x="1273" 
d="M1280 1434h201l-62 -394h-174zM918 1434h219v-1434h-197v156q-145 -183 -377 -183q-144 0 -256.5 71t-171.5 188.5t-59 259.5t59 259.5t171 188t257 70.5q221 0 355 -154v578zM915 612q-38 86 -121 145.5t-192 59.5q-133 0 -219 -90.5t-86 -234.5t86 -235t219 -91
q109 0 192 59.5t121 147.5v239z" />
    <glyph glyph-name="Dcroat" unicode="&#x110;" horiz-adv-x="1529" 
d="M188 1434h500q186 0 331.5 -53t237.5 -149.5t139.5 -226.5t47.5 -288t-47.5 -288t-139.5 -226.5t-237.5 -149.5t-331.5 -53h-500v621h-161v188h161v625zM422 213h266q253 0 385.5 130.5t132.5 373.5t-132.5 373.5t-385.5 130.5h-266v-412h379v-188h-379v-408z" />
    <glyph glyph-name="dcroat" unicode="&#x111;" horiz-adv-x="1273" 
d="M1137 1298h131v-147h-131v-1151h-197v156q-145 -183 -377 -183q-144 0 -256.5 71t-171.5 188.5t-59 259.5t59 259.5t171 188t257 70.5q221 0 355 -154v295h-322v147h322v136h219v-136zM602 166q109 0 192 59.5t121 147.5v239q-38 86 -121 145.5t-192 59.5
q-133 0 -219 -90.5t-86 -234.5t86 -235t219 -91z" />
    <glyph glyph-name="Emacron" unicode="&#x112;" horiz-adv-x="1269" 
d="M174 1434h987v-213h-753v-392h692v-213h-692v-403h766v-213h-1000v1434zM362 1774h639v-185h-639v185z" />
    <glyph glyph-name="emacron" unicode="&#x113;" horiz-adv-x="1122" 
d="M76 492q0 103 30 190t79.5 146.5t114.5 101.5t134 61t139 19q82 0 152 -18.5t122 -51t92 -77t64.5 -97.5t36.5 -112.5t11 -121t-15 -122.5h-739q18 -124 124 -187t253 -63q170 0 311 69v-188q-142 -68 -352 -68q-115 0 -214.5 33t-176.5 96t-121.5 163.5t-44.5 226.5z
M840 573q5 35 -5.5 76.5t-37 82.5t-82 68t-131.5 27q-117 0 -200 -67.5t-89 -186.5h545zM254 1323h639v-184h-639v184z" />
    <glyph glyph-name="Edotaccent" unicode="&#x116;" horiz-adv-x="1269" 
d="M174 1434h987v-213h-753v-392h692v-213h-692v-403h766v-213h-1000v1434zM532 1700q0 66 41.5 101.5t102.5 35.5q62 0 102.5 -35.5t40.5 -101.5q0 -69 -40.5 -105t-102.5 -36q-61 0 -102.5 36.5t-41.5 104.5z" />
    <glyph glyph-name="edotaccent" unicode="&#x117;" horiz-adv-x="1122" 
d="M76 492q0 103 30 190t79.5 146.5t114.5 101.5t134 61t139 19q82 0 152 -18.5t122 -51t92 -77t64.5 -97.5t36.5 -112.5t11 -121t-15 -122.5h-739q18 -124 124 -187t253 -63q170 0 311 69v-188q-142 -68 -352 -68q-115 0 -214.5 33t-176.5 96t-121.5 163.5t-44.5 226.5z
M840 573q5 35 -5.5 76.5t-37 82.5t-82 68t-131.5 27q-117 0 -200 -67.5t-89 -186.5h545zM424 1249q0 66 41 101.5t102 35.5q62 0 103 -35.5t41 -101.5q0 -69 -41 -105t-103 -36q-61 0 -102 36.5t-41 104.5z" />
    <glyph glyph-name="Eogonek" unicode="&#x118;" horiz-adv-x="1269" 
d="M995 -238q0 -34 22 -52.5t58 -18.5q49 0 99 26v-161q-70 -33 -170 -33q-99 0 -155 53.5t-56 136.5q2 71 49 148t129 139h-797v1434h987v-213h-753v-392h692v-213h-692v-403h766v-213q-80 -55 -129.5 -121.5t-49.5 -116.5z" />
    <glyph glyph-name="eogonek" unicode="&#x119;" horiz-adv-x="1122" 
d="M961 -432q-71 -45 -170 -45q-103 -1 -160.5 54t-55.5 138q0 66 38.5 134.5t111.5 127.5q-62 -4 -92 -4q-115 0 -214.5 33t-176.5 96t-121.5 163.5t-44.5 226.5q0 103 30 190t79.5 146.5t114.5 101.5t134 61t139 19q82 0 152 -18t122 -50.5t92 -77t64.5 -97.5t36.5 -112.5
t11 -121t-15 -123.5h-739q18 -124 124 -187t253 -63q170 0 311 69v-188q-212 -161 -209 -272q-1 -35 20 -54.5t60 -21.5q56 3 105 35v-160zM584 827q-117 0 -200 -67.5t-89 -186.5h545q5 35 -5.5 76.5t-37 82.5t-82 68t-131.5 27z" />
    <glyph glyph-name="Ecaron" unicode="&#x11a;" horiz-adv-x="1269" 
d="M174 1434h987v-213h-753v-392h692v-213h-692v-403h766v-213h-1000v1434zM1055 1866l-271 -307h-194l-271 307h228l141 -162l139 162h228z" />
    <glyph glyph-name="ecaron" unicode="&#x11b;" horiz-adv-x="1122" 
d="M76 492q0 103 30 190t79.5 146.5t114.5 101.5t134 61t139 19q82 0 152 -18.5t122 -51t92 -77t64.5 -97.5t36.5 -112.5t11 -121t-15 -122.5h-739q18 -124 124 -187t253 -63q170 0 311 69v-188q-142 -68 -352 -68q-115 0 -214.5 33t-176.5 96t-121.5 163.5t-44.5 226.5z
M840 573q5 35 -5.5 76.5t-37 82.5t-82 68t-131.5 27q-117 0 -200 -67.5t-89 -186.5h545zM946 1415l-270 -307h-195l-270 307h227l142 -162l139 162h227z" />
    <glyph glyph-name="Gbreve" unicode="&#x11e;" horiz-adv-x="1441" 
d="M86 717q0 147 43 271t117 210t173 146t209 88t228 28q235 0 434 -94v-227q-165 106 -401 106q-109 0 -207 -30.5t-179 -92t-129 -166t-48 -239.5q0 -119 33.5 -212.5t87.5 -152t128 -97t149.5 -54t158.5 -15.5q128 0 215 41v543h227v-700q-218 -97 -457 -97
q-123 0 -234 25.5t-212.5 83t-175 142t-117 211t-43.5 282.5zM1120 1642q-126 -88 -301 -88q-177 0 -303 88v189q135 -88 303 -88q166 0 301 88v-189z" />
    <glyph glyph-name="gbreve" unicode="&#x11f;" horiz-adv-x="1273" 
d="M76 492q0 142 59 259.5t171 188t257 70.5q231 0 377 -181v154h197v-971q0 -128 -46 -225t-125 -153t-174.5 -83.5t-205.5 -27.5q-224 0 -406 92v201q173 -101 377 -101q77 0 139.5 15t113.5 47.5t79.5 90.5t28.5 138v125q-134 -158 -355 -158q-144 0 -256.5 71
t-171.5 188.5t-59 259.5zM915 612q-38 86 -121 145.5t-192 59.5q-133 0 -219 -90.5t-86 -234.5t86 -235t219 -91q109 0 192 55.5t121 136.5v254zM887 1192q-126 -88 -301 -88q-177 0 -303 88v188q135 -88 303 -88q166 0 301 88v-188z" />
    <glyph glyph-name="Gdotaccent" unicode="&#x120;" horiz-adv-x="1441" 
d="M86 717q0 147 43 271t117 210t173 146t209 88t228 28q235 0 434 -94v-227q-165 106 -401 106q-109 0 -207 -30.5t-179 -92t-129 -166t-48 -239.5q0 -119 33.5 -212.5t87.5 -152t128 -97t149.5 -54t158.5 -15.5q128 0 215 41v543h227v-700q-218 -97 -457 -97
q-123 0 -234 25.5t-212.5 83t-175 142t-117 211t-43.5 282.5zM670 1700q0 66 41 101.5t102 35.5q62 0 102.5 -35.5t40.5 -101.5q0 -69 -40.5 -105t-102.5 -36q-61 0 -102 36.5t-41 104.5z" />
    <glyph glyph-name="gdotaccent" unicode="&#x121;" horiz-adv-x="1273" 
d="M76 492q0 142 59 259.5t171 188t257 70.5q231 0 377 -181v154h197v-971q0 -128 -46 -225t-125 -153t-174.5 -83.5t-205.5 -27.5q-224 0 -406 92v201q173 -101 377 -101q77 0 139.5 15t113.5 47.5t79.5 90.5t28.5 138v125q-134 -158 -355 -158q-144 0 -256.5 71
t-171.5 188.5t-59 259.5zM915 612q-38 86 -121 145.5t-192 59.5q-133 0 -219 -90.5t-86 -234.5t86 -235t219 -91q109 0 192 55.5t121 136.5v254zM436 1249q0 66 41.5 101.5t102.5 35.5q62 0 102.5 -35.5t40.5 -101.5q0 -69 -40.5 -105t-102.5 -36q-61 0 -102.5 36.5
t-41.5 104.5z" />
    <glyph glyph-name="Gcommaaccent" unicode="&#x122;" horiz-adv-x="1441" 
d="M86 717q0 147 43 271t117 210t173 146t209 88t228 28q235 0 434 -94v-227q-165 106 -401 106q-109 0 -207 -30.5t-179 -92t-129 -166t-48 -239.5q0 -119 33.5 -212.5t87.5 -152t128 -97t149.5 -54t158.5 -15.5q128 0 215 41v543h227v-700q-218 -97 -457 -97
q-123 0 -234 25.5t-212.5 83t-175 142t-117 211t-43.5 282.5zM881 -524h-185l58 407h211z" />
    <glyph glyph-name="gcommaaccent" unicode="&#x123;" horiz-adv-x="1273" 
d="M696 1112h-200l82 365h174zM76 492q0 142 59 259.5t171 188t257 70.5q231 0 377 -181v154h197v-971q0 -128 -46 -225t-125 -153t-174.5 -83.5t-205.5 -27.5q-224 0 -406 92v201q173 -101 377 -101q77 0 139.5 15t113.5 47.5t79.5 90.5t28.5 138v125q-134 -158 -355 -158
q-144 0 -256.5 71t-171.5 188.5t-59 259.5zM915 612q-38 86 -121 145.5t-192 59.5q-133 0 -219 -90.5t-86 -234.5t86 -235t219 -91q109 0 192 55.5t121 136.5v254z" />
    <glyph glyph-name="Hbar" unicode="&#x126;" horiz-adv-x="1585" 
d="M416 0h-234v1024h-147v168h147v242h234v-242h753v242h234v-242h147v-168h-147v-1024h-234v616h-753v-616zM416 1024v-205h755v205h-755z" />
    <glyph glyph-name="hbar" unicode="&#x127;" horiz-adv-x="1204" 
d="M356 874q58 60 141 98t177 38q184 0 294.5 -112.5t110.5 -289.5v-608h-219v580q0 116 -63 175.5t-166 59.5q-86 0 -156.5 -47.5t-118.5 -116.5v-651h-219v1135h-114v147h114v152h219v-152h330v-147h-330v-261z" />
    <glyph glyph-name="Imacron" unicode="&#x12a;" horiz-adv-x="581" 
d="M174 1434h234v-1434h-234v1434zM-27 1774h639v-185h-639v185z" />
    <glyph glyph-name="imacron" unicode="&#x12b;" horiz-adv-x="501" 
d="M14 1341h475v-176h-475v176zM141 983h219v-983h-219v983z" />
    <glyph glyph-name="Iogonek" unicode="&#x12e;" horiz-adv-x="581" 
d="M266 -233q-1 -35 20 -54.5t60 -21.5q56 3 105 35v-158q-70 -47 -170 -47q-103 0 -160.5 54.5t-57.5 137.5q3 124 140 287h-29v1434h234v-1434q-72 -77 -107.5 -132t-34.5 -101z" />
    <glyph glyph-name="iogonek" unicode="&#x12f;" horiz-adv-x="501" 
d="M387 1303q0 -64 -38.5 -98t-96.5 -34t-96.5 34t-38.5 98q0 62 39 95.5t96 33.5t96 -33.5t39 -95.5zM233 -233q0 -73 82 -76q57 3 103 35v-158q-67 -47 -168 -47q-104 0 -160.5 54t-56.5 138q0 72 33.5 148.5t95.5 138.5h-21v983h219v-983q-58 -55 -92.5 -119t-34.5 -114z
" />
    <glyph glyph-name="Idotaccent" unicode="&#x130;" horiz-adv-x="581" 
d="M174 1434h234v-1434h-234v1434zM143 1700q0 66 41.5 101.5t102.5 35.5q62 0 102.5 -35.5t40.5 -101.5q0 -69 -40.5 -105t-102.5 -36q-61 0 -102.5 36.5t-41.5 104.5z" />
    <glyph glyph-name="dotlessi" unicode="&#x131;" horiz-adv-x="501" 
d="M141 983h219v-983h-219v983z" />
    <glyph glyph-name="IJ" unicode="&#x132;" horiz-adv-x="1634" 
d="M174 1434h234v-1434h-234v1434zM836 1434h637v-1016q0 -115 -38.5 -202t-107.5 -139t-155.5 -77t-190.5 -25q-217 0 -369 84v224q134 -86 320 -86q307 0 307 241v781h-403v215z" />
    <glyph glyph-name="ij" unicode="&#x133;" horiz-adv-x="1003" 
d="M360 0h-219v983h219v-983zM385 1303q0 -64 -37.5 -98t-95.5 -34t-96.5 34t-38.5 98q0 62 39 95.5t96 33.5t95 -33.5t38 -95.5zM862 -162q0 -88 -26.5 -151.5t-72.5 -98t-98.5 -50t-115.5 -15.5q-95 0 -162 28v193q47 -20 105 -20q151 0 151 151v1108h219v-1145zM887 1303
q0 -64 -38.5 -98t-96.5 -34t-97 34t-39 98q0 61 39 95t97 34q57 0 96 -33.5t39 -95.5z" />
    <glyph glyph-name="Kcommaaccent" unicode="&#x136;" horiz-adv-x="1388" 
d="M408 0h-234v1434h234v-598h282l400 598h264l-475 -699l512 -735h-265l-432 621h-286v-621zM770 -504h-184l57 408h211z" />
    <glyph glyph-name="kcommaaccent" unicode="&#x137;" horiz-adv-x="1091" 
d="M1090 0h-252l-324 408h-158v-408h-219v1434h219v-840h162l283 389h250l-357 -487zM606 -504h-184l57 408h211z" />
    <glyph glyph-name="Lacute" unicode="&#x139;" horiz-adv-x="1189" 
d="M174 1434h234v-1217h753v-217h-987v1434zM403 1571h-223l187 303h254z" />
    <glyph glyph-name="lacute" unicode="&#x13a;" horiz-adv-x="501" 
d="M141 1495h219v-1495h-219v1495zM342 1583h-223l186 303h254z" />
    <glyph glyph-name="Lcommaaccent" unicode="&#x13b;" horiz-adv-x="1189" 
d="M174 1434h234v-1217h753v-217h-987v1434zM700 -504h-184l57 408h211z" />
    <glyph glyph-name="lcommaaccent" unicode="&#x13c;" horiz-adv-x="501" 
d="M141 1495h219v-1495h-219v1495zM285 -504h-185l58 408h211z" />
    <glyph glyph-name="Lcaron" unicode="&#x13d;" horiz-adv-x="1189" 
d="M768 1434h201l-62 -394h-174zM174 1434h234v-1217h753v-217h-987v1434z" />
    <glyph glyph-name="lcaron" unicode="&#x13e;" horiz-adv-x="501" 
d="M504 1495h201l-62 -393h-174zM141 1495h219v-1495h-219v1495z" />
    <glyph glyph-name="Ldot" unicode="&#x13f;" horiz-adv-x="1200" 
d="M907 752q0 -62 -37 -94.5t-94 -32.5q-56 0 -94.5 33t-38.5 94q0 63 38.5 96t94.5 33q57 0 94 -33t37 -96zM174 1434h234v-1217h753v-217h-987v1434z" />
    <glyph glyph-name="ldot" unicode="&#x140;" horiz-adv-x="696" 
d="M141 1495h219v-1495h-219v1495zM737 717q0 -64 -39 -98.5t-98 -34.5t-99 34.5t-40 98.5t40 98.5t99 34.5t98 -34.5t39 -98.5z" />
    <glyph glyph-name="Lslash" unicode="&#x141;" horiz-adv-x="1214" 
d="M1186 0h-987v530l-164 -65v192l164 68v709h233v-623l397 162v-193l-397 -162v-401h754v-217z" />
    <glyph glyph-name="lslash" unicode="&#x142;" horiz-adv-x="688" 
d="M246 1495h219v-608l168 67v-180l-168 -69v-705h-219v618l-166 -67v180l166 70v694z" />
    <glyph glyph-name="Nacute" unicode="&#x143;" horiz-adv-x="1570" 
d="M408 0h-234v1434h219l772 -1049q-2 49 -2 158v891h234v-1434h-219l-772 1049q2 -49 2 -156v-893zM852 1571h-223l186 303h254z" />
    <glyph glyph-name="nacute" unicode="&#x144;" horiz-adv-x="1204" 
d="M332 848q59 71 147.5 116.5t194.5 45.5q184 0 294.5 -112.5t110.5 -289.5v-608h-219v580q0 116 -63 175.5t-166 59.5q-86 0 -156.5 -47.5t-118.5 -116.5v-651h-219v983h195v-135zM668 1120h-224l187 303h254z" />
    <glyph glyph-name="Ncommaaccent" unicode="&#x145;" horiz-adv-x="1570" 
d="M408 0h-234v1434h219l772 -1049q-2 49 -2 158v891h234v-1434h-219l-772 1049q2 -49 2 -156v-893zM842 -504h-185l58 408h211z" />
    <glyph glyph-name="ncommaaccent" unicode="&#x146;" horiz-adv-x="1204" 
d="M332 848q59 71 147.5 116.5t194.5 45.5q184 0 294.5 -112.5t110.5 -289.5v-608h-219v580q0 116 -63 175.5t-166 59.5q-86 0 -156.5 -47.5t-118.5 -116.5v-651h-219v983h195v-135zM645 -504h-184l57 408h211z" />
    <glyph glyph-name="Ncaron" unicode="&#x147;" horiz-adv-x="1570" 
d="M408 0h-234v1434h219l772 -1049q-2 49 -2 158v891h234v-1434h-219l-772 1049q2 -49 2 -156v-893zM1159 1866l-270 -307h-195l-270 307h227l142 -162l139 162h227z" />
    <glyph glyph-name="ncaron" unicode="&#x148;" horiz-adv-x="1204" 
d="M332 848q59 71 147.5 116.5t194.5 45.5q184 0 294.5 -112.5t110.5 -289.5v-608h-219v580q0 116 -63 175.5t-166 59.5q-86 0 -156.5 -47.5t-118.5 -116.5v-651h-219v983h195v-135zM975 1415l-270 -307h-195l-270 307h227l141 -162l140 162h227z" />
    <glyph glyph-name="Eng" unicode="&#x14a;" horiz-adv-x="1570" 
d="M1397 -131q0 -167 -88 -253.5t-232 -86.5q-71 0 -151 22v203q38 -14 90 -14q147 0 147 151v129l-757 1029q2 -49 2 -156v-893h-234v1434h219l772 -1049q-2 49 -2 158v891h234v-1565z" />
    <glyph glyph-name="eng" unicode="&#x14b;" horiz-adv-x="1204" 
d="M1079 -168q0 -70 -18.5 -125.5t-48 -89t-70.5 -55.5t-82 -30.5t-86 -8.5q-92 0 -156 28v185q51 -21 95 -21q147 0 147 154v711q0 116 -63 175.5t-166 59.5q-86 0 -156.5 -47.5t-118.5 -116.5v-651h-219v983h195v-135q59 71 147.5 116.5t194.5 45.5q184 0 294.5 -112.5
t110.5 -289.5v-776z" />
    <glyph glyph-name="Omacron" unicode="&#x14c;" horiz-adv-x="1671" 
d="M82 717q0 115 29.5 222.5t91 202.5t149 165.5t212.5 111.5t272 41t271.5 -41t212 -111.5t149 -165.5t91 -202.5t29.5 -222.5t-29.5 -223t-91 -203t-149 -165.5t-212 -111.5t-271.5 -41t-272 41t-212.5 111.5t-149 165.5t-91 203t-29.5 223zM1352 717q0 105 -32.5 198
t-94.5 166.5t-162.5 116.5t-226.5 43t-226.5 -43t-162.5 -116.5t-95 -166.5t-33 -198t33 -198t95 -166.5t162.5 -116.5t226.5 -43t226.5 43t162.5 116.5t94.5 166.5t32.5 198zM516 1774h639v-185h-639v185z" />
    <glyph glyph-name="omacron" unicode="&#x14d;" horiz-adv-x="1216" 
d="M76 492q0 123 44.5 223.5t119 163.5t169.5 97t199 34q105 0 200 -34t170 -97t119 -163.5t44 -223.5t-44 -223.5t-119 -164t-170 -97.5t-200 -34q-104 0 -199 34t-169.5 97.5t-119 164t-44.5 223.5zM918 492q0 144 -86 230.5t-224 86.5q-139 0 -225 -86.5t-86 -230.5
t86 -231t225 -87q138 0 224 87t86 231zM289 1317h639v-184h-639v184z" />
    <glyph glyph-name="Ohungarumlaut" unicode="&#x150;" horiz-adv-x="1671" 
d="M82 717q0 115 29.5 222.5t91 202.5t149 165.5t212.5 111.5t272 41t271.5 -41t212 -111.5t149 -165.5t91 -202.5t29.5 -222.5t-29.5 -223t-91 -203t-149 -165.5t-212 -111.5t-271.5 -41t-272 41t-212.5 111.5t-149 165.5t-91 203t-29.5 223zM1352 717q0 105 -32.5 198
t-94.5 166.5t-162.5 116.5t-226.5 43t-226.5 -43t-162.5 -116.5t-95 -166.5t-33 -198t33 -198t95 -166.5t162.5 -116.5t226.5 -43t226.5 43t162.5 116.5t94.5 166.5t32.5 198zM1102 1591h-215l145 307h228zM760 1591h-215l145 307h228z" />
    <glyph glyph-name="ohungarumlaut" unicode="&#x151;" horiz-adv-x="1216" 
d="M76 492q0 123 44.5 223.5t119 163.5t169.5 97t199 34q105 0 200 -34t170 -97t119 -163.5t44 -223.5t-44 -223.5t-119 -164t-170 -97.5t-200 -34q-104 0 -199 34t-169.5 97.5t-119 164t-44.5 223.5zM918 492q0 144 -86 230.5t-224 86.5q-139 0 -225 -86.5t-86 -230.5
t86 -231t225 -87q138 0 224 87t86 231zM874 1135h-215l146 307h227zM532 1135h-215l146 307h227z" />
    <glyph glyph-name="OE" unicode="&#x152;" horiz-adv-x="2121" 
d="M1083 0q-102 -27 -247 -27q-147 0 -271.5 41t-212 111.5t-149 165.5t-90.5 203t-29 223t29 222.5t90.5 202.5t149 165.5t212 111.5t271.5 41q149 0 247 -26h930v-213h-698v-392h637v-213h-637v-403h710v-213h-942zM322 717q0 -231 143.5 -379t384.5 -148q130 0 233 35
v983q-103 35 -233 35q-241 0 -384.5 -147.5t-143.5 -378.5z" />
    <glyph glyph-name="oe" unicode="&#x153;" horiz-adv-x="1964" 
d="M1024 193q-66 -107 -178 -163.5t-248 -56.5q-101 0 -194 34t-166.5 97.5t-117.5 164t-44 223.5t44 223.5t117.5 163.5t165.5 97t193 34q136 0 249.5 -56t178.5 -161q66 108 173 162.5t226 54.5q81 0 150 -18.5t120 -51.5t91 -78t64 -98.5t36 -113.5t11 -122.5t-15 -124.5
h-739q12 -82 68.5 -138t135 -80.5t173.5 -24.5q166 0 307 69v-182q-145 -74 -357 -74q-140 0 -257 55.5t-187 164.5zM297 492q0 -144 86 -231t225 -87q138 0 224 87t86 231t-86 230.5t-224 86.5q-139 0 -225 -86.5t-86 -230.5zM1427 827q-118 0 -200 -69t-88 -193h544
q4 30 -1 63.5t-22.5 69.5t-46 64t-76.5 46.5t-110 18.5z" />
    <glyph glyph-name="Racute" unicode="&#x154;" horiz-adv-x="1435" 
d="M408 0h-234v1434h574q84 0 160.5 -13.5t149 -46.5t124.5 -83t84 -128.5t32 -177.5q0 -93 -27.5 -167.5t-76.5 -124.5t-109.5 -82t-134.5 -50l459 -561h-281l-430 537h-290v-537zM408 1221v-478h350q61 0 113 12t96 38.5t69 74t25 113.5t-25 114.5t-69.5 75t-96 38.5
t-112.5 12h-350zM758 1571h-223l186 303h254z" />
    <glyph glyph-name="racute" unicode="&#x155;" horiz-adv-x="774" 
d="M332 821q58 93 170 144t243 39v-216q-131 19 -238 -34t-151 -158v-596h-219v983h195v-162zM496 1120h-224l187 303h254z" />
    <glyph glyph-name="Rcommaaccent" unicode="&#x156;" horiz-adv-x="1435" 
d="M408 0h-234v1434h574q84 0 160.5 -13.5t149 -46.5t124.5 -83t84 -128.5t32 -177.5q0 -93 -27.5 -167.5t-76.5 -124.5t-109.5 -82t-134.5 -50l459 -561h-281l-430 537h-290v-537zM408 1221v-478h350q61 0 113 12t96 38.5t69 74t25 113.5t-25 114.5t-69.5 75t-96 38.5
t-112.5 12h-350zM766 -504h-184l57 408h211z" />
    <glyph glyph-name="rcommaaccent" unicode="&#x157;" horiz-adv-x="774" 
d="M332 821q58 93 170 144t243 39v-216q-131 19 -238 -34t-151 -158v-596h-219v983h195v-162zM272 -504h-184l57 408h211z" />
    <glyph glyph-name="Rcaron" unicode="&#x158;" horiz-adv-x="1435" 
d="M408 0h-234v1434h574q84 0 160.5 -13.5t149 -46.5t124.5 -83t84 -128.5t32 -177.5q0 -93 -27.5 -167.5t-76.5 -124.5t-109.5 -82t-134.5 -50l459 -561h-281l-430 537h-290v-537zM408 1221v-478h350q61 0 113 12t96 38.5t69 74t25 113.5t-25 114.5t-69.5 75t-96 38.5
t-112.5 12h-350zM1065 1866l-270 -307h-195l-270 307h227l141 -162l140 162h227z" />
    <glyph glyph-name="rcaron" unicode="&#x159;" horiz-adv-x="774" 
d="M332 821q58 93 170 144t243 39v-216q-131 19 -238 -34t-151 -158v-596h-219v983h195v-162zM803 1415l-271 -307h-194l-270 307h227l141 -162l139 162h228z" />
    <glyph glyph-name="Sacute" unicode="&#x15a;" horiz-adv-x="1216" 
d="M98 1069q0 96 40.5 172t110.5 123t160 71.5t193 24.5q123 0 242 -28.5t207 -79.5v-224q-87 58 -200.5 89.5t-229.5 29.5q-285 0 -285 -174q0 -49 28 -88t75.5 -66t109 -50t129.5 -45t135.5 -47t129 -60.5t109 -80t75.5 -111t28 -148.5q0 -88 -29 -157.5t-79 -115.5
t-120 -76t-148 -43t-167 -12q-288 0 -508 125v230q222 -142 492 -142q322 0 322 179q0 53 -28 94.5t-75.5 70t-109 52.5t-129.5 46.5t-136 47t-129.5 59.5t-109 78.5t-75.5 109t-28 146.5zM655 1571h-223l186 303h254z" />
    <glyph glyph-name="sacute" unicode="&#x15b;" horiz-adv-x="962" 
d="M86 717q0 77 33 135.5t90 92t124 49.5t144 16q189 0 354 -84v-193q-62 42 -157 69t-182 27q-76 0 -129.5 -25.5t-53.5 -80.5q0 -34 25.5 -60t67 -42t95 -33t108.5 -32.5t108.5 -40.5t95 -56.5t67 -82t25.5 -114.5q0 -78 -34 -136t-95 -90.5t-134 -47.5t-161 -15
q-107 0 -210 25.5t-175 69.5v194q74 -49 176.5 -76.5t198.5 -27.5q102 0 157.5 22t55.5 78q0 37 -33 64t-85 45.5t-115.5 36.5t-127 42.5t-115.5 57t-85 87t-33 126.5zM537 1120h-224l187 303h254z" />
    <glyph glyph-name="Scedilla" unicode="&#x15e;" horiz-adv-x="1216" 
d="M336 1073q0 -49 28 -88t75.5 -66t109 -50t129.5 -45t135.5 -47t129 -60.5t109 -80t75.5 -111t28 -148.5q0 -96 -34 -170t-96 -121t-139.5 -73.5t-172.5 -35.5l-25 -88q98 0 151.5 -44t53.5 -124q1 -98 -79 -148t-204 -50q-116 0 -204 39v155q75 -43 174 -43q67 0 103 18
t36 50q0 39 -70.5 52t-146.5 -1l41 182q-246 15 -439 123v230q222 -142 492 -142q322 0 322 179q0 53 -28 94.5t-75.5 70t-109 52.5t-129.5 46.5t-136 47t-129.5 59.5t-109 78.5t-75.5 109t-28 146.5q0 96 40.5 172t110.5 123t160 71.5t193 24.5q123 0 242 -28.5t207 -79.5
v-224q-87 58 -200.5 89.5t-229.5 29.5q-285 0 -285 -174z" />
    <glyph glyph-name="scedilla" unicode="&#x15f;" horiz-adv-x="962" 
d="M309 723q0 -34 25.5 -60t67 -42t95 -33t108.5 -32.5t108.5 -40.5t95 -56.5t67 -82t25.5 -114.5q0 -127 -85 -195.5t-226 -84.5l-23 -93q98 0 150.5 -44t54.5 -124q0 -98 -80.5 -148t-204.5 -50q-116 0 -204 39v155q75 -43 174 -43q67 0 103 18t36 50q0 39 -70 52t-147 -1
l43 182q-201 13 -330 93v194q74 -49 176.5 -76.5t198.5 -27.5q102 0 157.5 22t55.5 78q0 37 -33 64t-85 45.5t-115.5 36.5t-127 42.5t-115.5 57t-85 87t-33 126.5q0 77 33 135.5t90 92t124 49.5t144 16q189 0 354 -84v-193q-62 42 -157 69t-182 27q-76 0 -129.5 -25.5
t-53.5 -80.5z" />
    <glyph glyph-name="Scaron" unicode="&#x160;" horiz-adv-x="1216" 
d="M98 1069q0 96 40.5 172t110.5 123t160 71.5t193 24.5q123 0 242 -28.5t207 -79.5v-224q-87 58 -200.5 89.5t-229.5 29.5q-285 0 -285 -174q0 -49 28 -88t75.5 -66t109 -50t129.5 -45t135.5 -47t129 -60.5t109 -80t75.5 -111t28 -148.5q0 -88 -29 -157.5t-79 -115.5
t-120 -76t-148 -43t-167 -12q-288 0 -508 125v230q222 -142 492 -142q322 0 322 179q0 53 -28 94.5t-75.5 70t-109 52.5t-129.5 46.5t-136 47t-129.5 59.5t-109 78.5t-75.5 109t-28 146.5zM963 1866l-271 -307h-194l-271 307h228l141 -162l139 162h228z" />
    <glyph glyph-name="scaron" unicode="&#x161;" horiz-adv-x="962" 
d="M86 717q0 77 33 135.5t90 92t124 49.5t144 16q189 0 354 -84v-193q-62 42 -157 69t-182 27q-76 0 -129.5 -25.5t-53.5 -80.5q0 -34 25.5 -60t67 -42t95 -33t108.5 -32.5t108.5 -40.5t95 -56.5t67 -82t25.5 -114.5q0 -78 -34 -136t-95 -90.5t-134 -47.5t-161 -15
q-107 0 -210 25.5t-175 69.5v194q74 -49 176.5 -76.5t198.5 -27.5q102 0 157.5 22t55.5 78q0 37 -33 64t-85 45.5t-115.5 36.5t-127 42.5t-115.5 57t-85 87t-33 126.5zM844 1415l-271 -307h-194l-270 307h227l141 -162l139 162h228z" />
    <glyph glyph-name="Tcommaaccent" unicode="&#x162;" horiz-adv-x="1239" 
d="M29 1434h1181v-215h-473v-1219h-233v1219h-475v215zM653 -504h-184l57 408h211z" />
    <glyph glyph-name="tcommaaccent" unicode="&#x163;" horiz-adv-x="851" 
d="M209 1280l217 53v-350h356v-192h-356v-451q0 -95 44 -133.5t142 -38.5q104 0 199 39v-189q-118 -43 -264 -43q-152 0 -245 80t-93 244v492h-176v192h176v297zM545 -504h-185l58 408h211z" />
    <glyph glyph-name="Tcaron" unicode="&#x164;" horiz-adv-x="1239" 
d="M29 1434h1181v-215h-473v-1219h-233v1219h-475v215zM997 1866l-270 -307h-195l-270 307h227l142 -162l139 162h227z" />
    <glyph glyph-name="tcaron" unicode="&#x165;" horiz-adv-x="851" 
d="M606 1507h201l-62 -379h-174zM209 1280l217 53v-350h356v-192h-356v-451q0 -95 44 -133.5t142 -38.5q104 0 199 39v-189q-118 -43 -264 -43q-152 0 -245 80t-93 244v492h-176v192h176v297z" />
    <glyph glyph-name="Tbar" unicode="&#x166;" horiz-adv-x="1259" 
d="M748 0h-234v612h-244v174h244v433h-475v215h1182v-215h-473v-433h241v-174h-241v-612z" />
    <glyph glyph-name="tbar" unicode="&#x167;" horiz-adv-x="851" 
d="M426 338q0 -93 44.5 -132.5t141.5 -39.5q104 0 199 39v-187q-127 -43 -264 -43q-152 0 -245 80t-93 244v152h-100v155h100v191h-176v186h176v297l217 53v-350h356v-186h-356v-191h289v-155h-289v-113z" />
    <glyph glyph-name="Umacron" unicode="&#x16a;" horiz-adv-x="1544" 
d="M1151 1434h233v-904q0 -121 -33.5 -217t-90 -159t-135.5 -104.5t-165.5 -59t-185.5 -17.5t-186.5 17.5t-167 59t-136.5 104.5t-90.5 159t-33.5 217v904h233v-891q0 -353 381 -353q176 0 276.5 84t100.5 269v891zM449 1774h638v-185h-638v185z" />
    <glyph glyph-name="umacron" unicode="&#x16b;" horiz-adv-x="1206" 
d="M850 983h219v-983h-195v135q-59 -71 -147.5 -116.5t-194.5 -45.5q-191 0 -298 111.5t-107 290.5v608h219v-580q0 -118 59 -176.5t170 -58.5q86 0 156.5 47.5t118.5 116.5v651zM283 1323h639v-184h-639v184z" />
    <glyph glyph-name="Uring" unicode="&#x16e;" horiz-adv-x="1544" 
d="M1151 1434h233v-904q0 -121 -33.5 -217t-90 -159t-135.5 -104.5t-165.5 -59t-185.5 -17.5t-186.5 17.5t-167 59t-136.5 104.5t-90.5 159t-33.5 217v904h233v-891q0 -353 381 -353q176 0 276.5 84t100.5 269v891zM1012 1751q0 -106 -71.5 -170.5t-172.5 -64.5
q-103 0 -175.5 64.5t-72.5 170.5q0 105 73 169.5t175 64.5q101 0 172.5 -64.5t71.5 -169.5zM666 1751q0 -46 29 -74t71 -28t71 28t29 74q0 44 -29 72t-71 28t-71 -28t-29 -72z" />
    <glyph glyph-name="uring" unicode="&#x16f;" horiz-adv-x="1206" 
d="M850 983h219v-983h-195v135q-59 -71 -147.5 -116.5t-194.5 -45.5q-191 0 -298 111.5t-107 290.5v608h219v-580q0 -118 59 -176.5t170 -58.5q86 0 156.5 47.5t118.5 116.5v651zM846 1300q0 -106 -71.5 -170.5t-172.5 -64.5q-103 0 -175.5 64.5t-72.5 170.5q0 105 73 169.5
t175 64.5q101 0 172.5 -64.5t71.5 -169.5zM500 1300q0 -46 29 -74t71 -28t71 28t29 74q0 44 -29 72.5t-71 28.5t-71 -28.5t-29 -72.5z" />
    <glyph glyph-name="Uhungarumlaut" unicode="&#x170;" horiz-adv-x="1544" 
d="M1151 1434h233v-904q0 -121 -33.5 -217t-90 -159t-135.5 -104.5t-165.5 -59t-185.5 -17.5t-186.5 17.5t-167 59t-136.5 104.5t-90.5 159t-33.5 217v904h233v-891q0 -353 381 -353q176 0 276.5 84t100.5 269v891zM1034 1591h-215l146 307h227zM692 1591h-215l146 307h227z
" />
    <glyph glyph-name="uhungarumlaut" unicode="&#x171;" horiz-adv-x="1206" 
d="M850 983h219v-983h-195v135q-59 -71 -147.5 -116.5t-194.5 -45.5q-191 0 -298 111.5t-107 290.5v608h219v-580q0 -118 59 -176.5t170 -58.5q86 0 156.5 47.5t118.5 116.5v651zM868 1141h-215l146 307h227zM526 1141h-215l146 307h227z" />
    <glyph glyph-name="Uogonek" unicode="&#x172;" horiz-adv-x="1544" 
d="M1137 -432q-67 -47 -168 -47q-103 0 -160 54.5t-57 137.5q2 65 33.5 134.5t88.5 129.5q-66 -4 -100 -4q-99 0 -186.5 17.5t-167 59t-136.5 104.5t-90.5 159t-33.5 217v904h233v-891q0 -353 381 -353q176 0 276.5 84t100.5 269v891h233v-904q0 -300 -194 -440
q-89 -64 -145 -130t-74.5 -110.5t-18.5 -82.5q0 -73 82 -76q57 3 103 35v-158z" />
    <glyph glyph-name="uogonek" unicode="&#x173;" horiz-adv-x="1206" 
d="M1069 983v-983q-80 -54 -124 -117t-42 -114q-1 -35 20.5 -55.5t59.5 -20.5q47 0 86 20v-157q-65 -33 -151 -33q-103 0 -160.5 54.5t-57.5 137.5q3 149 174 308v112q-59 -71 -147.5 -116.5t-194.5 -45.5q-191 0 -298 111.5t-107 290.5v608h219v-580q0 -118 59 -176.5
t170 -58.5q86 0 156.5 47.5t118.5 116.5v651h219z" />
    <glyph glyph-name="Wcircumflex" unicode="&#x174;" horiz-adv-x="2117" 
d="M1837 1434h256l-448 -1434h-256l-328 1069l-328 -1069h-256l-446 1434h254l325 -1160l348 1160h207l348 -1160zM969 1874h194l264 -307h-227l-133 155l-135 -155h-227z" />
    <glyph glyph-name="wcircumflex" unicode="&#x175;" horiz-adv-x="1654" 
d="M1391 983h231l-326 -983h-235l-234 705l-233 -705h-234l-327 983h231l221 -743l240 743h205l241 -743zM735 1423h195l264 -307h-227l-133 156l-136 -156h-227z" />
    <glyph glyph-name="Ycircumflex" unicode="&#x176;" horiz-adv-x="1386" 
d="M809 0h-234v526l-561 908h262l416 -695l418 695h262l-563 -908v-526zM600 1874h195l264 -307h-228l-133 155l-135 -155h-227z" />
    <glyph glyph-name="ycircumflex" unicode="&#x177;" horiz-adv-x="1128" 
d="M580 242l292 741h230l-461 -1116q-142 -342 -395 -342q-60 0 -129 16v187q49 -15 100 -15q159 0 244 230l20 49l-467 991h234zM455 1423h194l264 -307h-227l-133 156l-135 -156h-228z" />
    <glyph glyph-name="Ydieresis" unicode="&#x178;" horiz-adv-x="1386" 
d="M809 0h-234v526l-561 908h262l416 -695l418 695h262l-563 -908v-526zM1034 1710q0 -54 -38.5 -92.5t-92.5 -38.5t-92.5 38.5t-38.5 92.5t38.5 92.5t92.5 38.5t92.5 -38.5t38.5 -92.5zM608 1710q0 -54 -38 -92.5t-93 -38.5q-54 0 -92.5 38.5t-38.5 92.5t38.5 92.5
t92.5 38.5q55 0 93 -38.5t38 -92.5z" />
    <glyph glyph-name="Zacute" unicode="&#x179;" horiz-adv-x="1228" 
d="M1159 0h-1089v186l764 1033h-740v215h1036v-187l-763 -1030h792v-217zM694 1571h-223l186 303h254z" />
    <glyph glyph-name="zacute" unicode="&#x17a;" horiz-adv-x="968" 
d="M96 983h770v-164l-524 -633h559v-186h-831v164l524 633h-498v186zM559 1120h-223l186 303h254z" />
    <glyph glyph-name="Zdotaccent" unicode="&#x17b;" horiz-adv-x="1228" 
d="M1159 0h-1089v186l764 1033h-740v215h1036v-187l-763 -1030h792v-217zM479 1700q0 66 41.5 101.5t102.5 35.5q62 0 102.5 -35.5t40.5 -101.5q0 -69 -40.5 -105t-102.5 -36q-61 0 -102.5 36.5t-41.5 104.5z" />
    <glyph glyph-name="zdotaccent" unicode="&#x17c;" horiz-adv-x="968" 
d="M96 983h770v-164l-524 -633h559v-186h-831v164l524 633h-498v186zM344 1249q0 66 41 101.5t102 35.5q62 0 103 -35.5t41 -101.5q0 -69 -41 -105t-103 -36q-61 0 -102 36.5t-41 104.5z" />
    <glyph glyph-name="Zcaron" unicode="&#x17d;" horiz-adv-x="1228" 
d="M1159 0h-1089v186l764 1033h-740v215h1036v-187l-763 -1030h792v-217zM1001 1866l-270 -307h-194l-271 307h228l141 -162l139 162h227z" />
    <glyph glyph-name="zcaron" unicode="&#x17e;" horiz-adv-x="968" 
d="M96 983h770v-164l-524 -633h559v-186h-831v164l524 633h-498v186zM866 1415l-270 -307h-195l-270 307h227l142 -162l139 162h227z" />
    <glyph glyph-name="Scommaaccent" unicode="&#x218;" horiz-adv-x="1216" 
d="M98 1069q0 96 40.5 172t110.5 123t160 71.5t193 24.5q123 0 242 -28.5t207 -79.5v-224q-87 58 -200.5 89.5t-229.5 29.5q-285 0 -285 -174q0 -49 28 -88t75.5 -66t109 -50t129.5 -45t135.5 -47t129 -60.5t109 -80t75.5 -111t28 -148.5q0 -88 -29 -157.5t-79 -115.5
t-120 -76t-148 -43t-167 -12q-288 0 -508 125v230q222 -142 492 -142q322 0 322 179q0 53 -28 94.5t-75.5 70t-109 52.5t-129.5 46.5t-136 47t-129.5 59.5t-109 78.5t-75.5 109t-28 146.5zM651 -504h-184l57 408h211z" />
    <glyph glyph-name="scommaaccent" unicode="&#x219;" horiz-adv-x="962" 
d="M86 717q0 77 33 135.5t90 92t124 49.5t144 16q189 0 354 -84v-193q-62 42 -157 69t-182 27q-76 0 -129.5 -25.5t-53.5 -80.5q0 -34 25.5 -60t67 -42t95 -33t108.5 -32.5t108.5 -40.5t95 -56.5t67 -82t25.5 -114.5q0 -78 -34 -136t-95 -90.5t-134 -47.5t-161 -15
q-107 0 -210 25.5t-175 69.5v194q74 -49 176.5 -76.5t198.5 -27.5q102 0 157.5 22t55.5 78q0 37 -33 64t-85 45.5t-115.5 36.5t-127 42.5t-115.5 57t-85 87t-33 126.5zM526 -504h-184l57 408h211z" />
    <glyph glyph-name="uni021A" unicode="&#x21a;" horiz-adv-x="1239" 
d="M29 1434h1181v-215h-473v-1219h-233v1219h-475v215zM653 -504h-184l57 408h211z" />
    <glyph glyph-name="uni021B" unicode="&#x21b;" horiz-adv-x="851" 
d="M209 1280l217 53v-350h356v-192h-356v-451q0 -95 44 -133.5t142 -38.5q104 0 199 39v-189q-118 -43 -264 -43q-152 0 -245 80t-93 244v492h-176v192h176v297zM545 -504h-185l58 408h211z" />
    <glyph glyph-name="circumflex" unicode="&#x2c6;" horiz-adv-x="710" 
d="M258 1874h195l264 -307h-228l-133 155l-135 -155h-227z" />
    <glyph glyph-name="caron" unicode="&#x2c7;" horiz-adv-x="710" 
d="M723 1866l-270 -307h-195l-270 307h227l141 -162l140 162h227z" />
    <glyph glyph-name="breve" unicode="&#x2d8;" horiz-adv-x="712" 
d="M657 1640q-126 -88 -301 -88q-177 0 -303 88v189q135 -88 303 -88q166 0 301 88v-189z" />
    <glyph glyph-name="dotaccent" unicode="&#x2d9;" horiz-adv-x="270" 
d="M-8 1704q0 66 41 101.5t102 35.5q62 0 103 -35.5t41 -101.5q0 -69 -41 -105t-103 -36q-61 0 -102 36.5t-41 104.5z" />
    <glyph glyph-name="ring" unicode="&#x2da;" horiz-adv-x="479" 
d="M485 1751q0 -106 -71 -170.5t-172 -64.5q-103 0 -175.5 64.5t-72.5 170.5q0 105 73 169.5t175 64.5q101 0 172 -64.5t71 -169.5zM139 1751q0 -46 29 -74t72 -28q42 0 71 28t29 74q0 44 -29 72t-71 28t-71.5 -28.5t-29.5 -71.5z" />
    <glyph glyph-name="ogonek" unicode="&#x2db;" horiz-adv-x="450" 
d="M184 0h203q-79 -54 -123.5 -118t-42.5 -115q-1 -35 20 -54.5t60 -21.5q56 3 105 35v-158q-70 -47 -170 -47q-103 0 -160.5 54.5t-57.5 137.5q2 74 44 150t122 137z" />
    <glyph glyph-name="tilde" unicode="&#x2dc;" horiz-adv-x="765" 
d="M733 1796q22 -114 -31.5 -182t-146.5 -68q-56 0 -117 21.5t-108.5 43t-71.5 21.5q-32 0 -46 -21.5t-9 -51.5h-170q-22 112 31.5 180.5t144.5 68.5q55 0 116 -21.5t110 -43t73 -21.5q66 0 55 74h170z" />
    <glyph glyph-name="hungarumlaut" unicode="&#x2dd;" horiz-adv-x="819" 
d="M625 1591h-215l145 307h227zM283 1591h-215l145 307h227z" />
    <glyph glyph-name="uni0326" unicode="&#x326;" horiz-adv-x="311" 
d="M227 -504h-184l57 408h211z" />
    <glyph glyph-name="uni0401" unicode="&#x401;" horiz-adv-x="1267" 
d="M1024 1710q0 -54 -38.5 -92.5t-92.5 -38.5t-92.5 38.5t-38.5 92.5t38.5 92.5t92.5 38.5t92.5 -38.5t38.5 -92.5zM598 1710q0 -54 -38 -92.5t-93 -38.5q-54 0 -92.5 38.5t-38.5 92.5t38.5 92.5t92.5 38.5q55 0 93 -38.5t38 -92.5zM174 1434h987v-213h-753v-392h692v-213
h-692v-403h766v-213h-1000v1434z" />
    <glyph glyph-name="uni0410" unicode="&#x410;" horiz-adv-x="1490" 
d="M260 0h-248l606 1434h256l605 -1434h-246l-127 309h-719zM719 1126l-252 -612h557l-252 612q-23 67 -27 80q-8 -29 -26 -80z" />
    <glyph glyph-name="uni0411" unicode="&#x411;" horiz-adv-x="1376" 
d="M408 877h352q87 0 162 -11.5t148 -42t124.5 -79t83 -127t31.5 -181.5q0 -102 -31.5 -180t-82.5 -125.5t-124.5 -78t-148.5 -41.5t-162 -11h-586v1434h1022v-215h-788v-342zM408 213h356q52 0 91.5 4t82.5 18t70 37.5t45 65t18 98.5q0 58 -18 100t-46 66.5t-70 38.5
t-82 18.5t-91 4.5h-356v-451z" />
    <glyph glyph-name="uni0412" unicode="&#x412;" horiz-adv-x="1415" 
d="M174 1434h606q230 0 361 -92t131 -271q0 -123 -63 -203t-162 -112q42 -12 79.5 -30t75.5 -48.5t65.5 -68.5t44.5 -93t17 -119q0 -94 -35.5 -166t-90.5 -115t-130 -70t-144.5 -36.5t-144.5 -9.5h-610v1434zM1092 422q0 219 -297 219h-387v-436h354q56 0 96.5 3.5t87.5 16
t76.5 35t49.5 64t20 98.5zM1034 1034q0 197 -278 197h-348v-391l380 -2q109 0 177.5 48.5t68.5 147.5z" />
    <glyph glyph-name="uni0413" unicode="&#x413;" horiz-adv-x="1171" 
d="M408 0h-234v1434h971v-215h-737v-1219z" />
    <glyph glyph-name="uni0414" unicode="&#x414;" horiz-adv-x="1615" 
d="M258 -326h-213v539h172q229 418 229 1221h924v-1221h182v-539h-213v326h-1081v-326zM676 1219q-45 -698 -205 -1006h666v1006h-461z" />
    <glyph glyph-name="uni0415" unicode="&#x415;" horiz-adv-x="1267" 
d="M174 1434h987v-213h-753v-392h692v-213h-692v-403h766v-213h-1000v1434z" />
    <glyph glyph-name="uni0416" unicode="&#x416;" horiz-adv-x="1968" 
d="M276 0h-264l449 735l-412 699h262l338 -598h219v598h234v-598h217l338 598h264l-414 -699l449 -735h-262l-377 621h-215v-621h-234v621h-217z" />
    <glyph glyph-name="uni0417" unicode="&#x417;" horiz-adv-x="1263" 
d="M1178 389q0 -91 -34 -164t-90 -119t-132.5 -77t-156 -43.5t-165.5 -12.5q-275 0 -520 93v227q223 -106 502 -103q72 0 131.5 10.5t112.5 34.5t83.5 71t30.5 112q0 62 -27 106t-75 67.5t-103 33.5t-121 10h-307v213h287q134 0 211.5 49.5t77.5 144.5q0 201 -330 201
q-224 3 -449 -104v229q217 92 467 92q163 0 284.5 -41t193 -129t71.5 -215q0 -120 -63.5 -203t-169.5 -118q55 -13 104.5 -40t92.5 -70.5t68.5 -109t25.5 -145.5z" />
    <glyph glyph-name="uni0418" unicode="&#x418;" horiz-adv-x="1570" 
d="M1397 0h-234v893q0 107 2 156l-772 -1049h-219v1434h234v-891q0 -109 -2 -158l772 1049h219v-1434z" />
    <glyph glyph-name="uni0419" unicode="&#x419;" horiz-adv-x="1570" 
d="M1163 0h234v1434h-219l-772 -1049q2 49 2 158v891h-234v-1434h219l772 1049q-2 -49 -2 -156v-893zM1085 1642q-126 -88 -301 -88q-177 0 -303 88v189q135 -88 303 -88q166 0 301 88v-189z" />
    <glyph glyph-name="uni041A" unicode="&#x41a;" horiz-adv-x="1388" 
d="M408 0h-234v1434h234v-598h282l400 598h264l-475 -699l512 -735h-265l-432 621h-286v-621z" />
    <glyph glyph-name="uni041B" unicode="&#x41b;" horiz-adv-x="1538" 
d="M436 1434h928v-1434h-234v1219h-475q-10 -120 -17 -190t-19 -181t-23 -177.5t-28.5 -159.5t-37.5 -150t-46.5 -125.5t-59.5 -108.5t-72.5 -77t-89 -53.5t-106.5 -16.5q-66 0 -142 24v215q41 -14 99 -14q146 5 219 310q49 201 85 667q3 36 8 109q7 96 11 143z" />
    <glyph glyph-name="uni041C" unicode="&#x41c;" horiz-adv-x="1859" 
d="M1475 1434h211v-1434h-234v1004l-453 -680h-139l-452 682v-1006h-234v1434h211l545 -822z" />
    <glyph glyph-name="uni041D" unicode="&#x41d;" horiz-adv-x="1570" 
d="M1163 1434h234v-1434h-234v610h-755v-610h-234v1434h234v-609h755v609z" />
    <glyph glyph-name="uni041E" unicode="&#x41e;" horiz-adv-x="1671" 
d="M82 717q0 115 29.5 222.5t91 202.5t149 165.5t212.5 111.5t272 41t271.5 -41t212 -111.5t149 -165.5t91 -202.5t29.5 -222.5t-29.5 -223t-91 -203t-149 -165.5t-212 -111.5t-271.5 -41t-272 41t-212.5 111.5t-149 165.5t-91 203t-29.5 223zM1352 717q0 105 -32.5 198
t-94.5 166.5t-162.5 116.5t-226.5 43t-226.5 -43t-162.5 -116.5t-95 -166.5t-33 -198t33 -198t95 -166.5t162.5 -116.5t226.5 -43t226.5 43t162.5 116.5t94.5 166.5t32.5 198z" />
    <glyph glyph-name="uni041F" unicode="&#x41f;" horiz-adv-x="1552" 
d="M408 0h-234v1434h1204v-1434h-233v1219h-737v-1219z" />
    <glyph glyph-name="uni0420" unicode="&#x420;" horiz-adv-x="1359" 
d="M174 1434h512q612 0 612 -471t-612 -471h-278v-492h-234v1434zM1061 963q0 76 -28 128t-80 79.5t-113.5 39t-141.5 11.5h-290v-516h290q80 0 141 11.5t113.5 39t80.5 79.5t28 128z" />
    <glyph glyph-name="uni0421" unicode="&#x421;" horiz-adv-x="1349" 
d="M86 705q0 148 43 273.5t116 213t170.5 149t206.5 90.5t224 29q217 0 407 -94v-227q-151 106 -368 106q-84 0 -163.5 -19.5t-152 -62t-126.5 -104.5t-86 -153t-33 -201q0 -127 49.5 -228.5t131 -163t180 -93.5t204.5 -32q230 0 375 111v-231q-195 -95 -416 -95
q-113 0 -222 28.5t-207 89t-172.5 145t-118 206t-42.5 263.5z" />
    <glyph glyph-name="uni0422" unicode="&#x422;" horiz-adv-x="1239" 
d="M29 1434h1181v-215h-473v-1219h-233v1219h-475v215z" />
    <glyph glyph-name="uni0423" unicode="&#x423;" horiz-adv-x="1327" 
d="M811 326q-90 -192 -206 -272.5t-255 -80.5q-93 0 -205 33v207q83 -27 166 -27q91 0 151.5 37.5t102.5 122.5l27 53l-582 1035h260l441 -820l366 820h254z" />
    <glyph glyph-name="uni0424" unicode="&#x424;" horiz-adv-x="1779" 
d="M1004 -78h-228v184q-333 11 -528 171.5t-195 439.5t195 439t528 171v184h228v-184q335 -12 528.5 -171.5t193.5 -438.5t-193.5 -439t-528.5 -172v-184zM291 717q0 -178 119.5 -287.5t365.5 -122.5v819q-246 -13 -365.5 -121.5t-119.5 -287.5zM1004 1126v-819
q246 13 365.5 122.5t119.5 287.5t-119.5 287t-365.5 122z" />
    <glyph glyph-name="uni0425" unicode="&#x425;" horiz-adv-x="1351" 
d="M272 0h-276l534 739l-503 695h276l373 -519l373 519h276l-506 -695l537 -739h-277l-403 565z" />
    <glyph glyph-name="uni0426" unicode="&#x426;" horiz-adv-x="1626" 
d="M1563 -326h-213l2 326h-1178v1434h234v-1217h741v1217h233v-1217h181v-543z" />
    <glyph glyph-name="uni0427" unicode="&#x427;" horiz-adv-x="1415" 
d="M1241 0h-233v539q-201 -66 -394 -66q-248 2 -387 125.5t-139 364.5v471h234v-471q0 -140 93 -205.5t257 -67.5q170 0 336 66v678h233v-1434z" />
    <glyph glyph-name="uni0428" unicode="&#x428;" horiz-adv-x="2164" 
d="M1991 0h-1817v1434h234v-1217h559v1217h233v-1217h557v1217h234v-1434z" />
    <glyph glyph-name="uni0429" unicode="&#x429;" horiz-adv-x="2234" 
d="M2171 -326h-213v326h-1784v1434h234v-1217h559v1217h233v-1217h557v1217h234v-1217h180v-543z" />
    <glyph glyph-name="uni042A" unicode="&#x42a;" horiz-adv-x="1570" 
d="M899 0h-512v1219h-354v215h588v-492h278q106 -1 194 -14.5t167 -47t133.5 -86t86 -134.5t31.5 -189q0 -471 -612 -471zM621 729v-516h290q80 0 141.5 11.5t113.5 39t80 79.5t28 128t-28 128t-80.5 79.5t-113.5 39t-141 11.5h-290z" />
    <glyph glyph-name="uni042B" unicode="&#x42b;" horiz-adv-x="1845" 
d="M686 0h-512v1434h234v-492h278q107 -1 195 -14.5t167 -47t133 -86t85.5 -134.5t31.5 -189q0 -471 -612 -471zM408 729v-516h290q80 0 141.5 11.5t113.5 39t80 79.5t28 128t-28 128t-80.5 79.5t-113.5 39t-141 11.5h-290zM1671 0h-233v1434h233v-1434z" />
    <glyph glyph-name="uni042C" unicode="&#x42c;" horiz-adv-x="1357" 
d="M686 0h-512v1434h234v-492h278q107 -1 195 -14.5t167 -47t133 -86t85.5 -134.5t31.5 -189q0 -471 -612 -471zM408 729v-516h290q80 0 141.5 11.5t113.5 39t80 79.5t28 128t-28 128t-80.5 79.5t-113.5 39t-141 11.5h-290z" />
    <glyph glyph-name="uni042D" unicode="&#x42d;" horiz-adv-x="1345" 
d="M92 1366q186 94 410 94q115 0 223 -28.5t205.5 -89.5t170.5 -148.5t116 -214.5t43 -279q0 -148 -43 -270.5t-116.5 -205.5t-171.5 -140.5t-206.5 -84t-224.5 -26.5q-214 0 -406 95v235q148 -113 371 -113q82 0 156.5 13.5t144.5 45t123.5 79.5t90 120.5t46.5 163.5h-702
v209h698q-15 110 -66.5 193.5t-128.5 132.5t-167 72.5t-191 23.5q-103 0 -203 -26t-172 -78v227z" />
    <glyph glyph-name="uni042E" unicode="&#x42e;" horiz-adv-x="2244" 
d="M2163 717q0 -115 -29.5 -223t-91 -203t-148.5 -165.5t-211.5 -111.5t-271.5 -41q-133 0 -248 34t-199.5 93.5t-147.5 140.5t-99 173.5t-49 193.5h-260v-608h-234v1434h234v-609h260q16 128 70 240.5t144.5 201.5t226.5 141t302 52q147 0 271.5 -41t211.5 -111.5
t148.5 -165.5t91 -202.5t29.5 -222.5zM893 717q0 -105 32.5 -198t95 -166.5t162.5 -116.5t226 -43t226.5 43t162.5 116.5t94.5 166.5t32.5 198t-32.5 198t-94.5 166.5t-162.5 116.5t-226.5 43t-226 -43t-162.5 -116.5t-95 -166.5t-32.5 -198z" />
    <glyph glyph-name="uni042F" unicode="&#x42f;" horiz-adv-x="1413" 
d="M322 0h-277l412 539q-155 44 -246.5 151t-91.5 277q0 120 45.5 211.5t125 146t178 82t212.5 27.5h559v-1434h-233v508h-299zM356 967q0 -126 88.5 -189t231.5 -63h330v506h-330q-144 0 -232 -63.5t-88 -190.5z" />
    <glyph glyph-name="uni0430" unicode="&#x430;" horiz-adv-x="1140" 
d="M975 227q0 -71 72 -71q25 0 65 12v-158q-62 -24 -139 -24q-147 0 -197 114q-156 -127 -370 -127q-92 0 -168.5 32t-126.5 102t-50 167q0 90 39 157t104.5 103t139.5 53t156 17q115 0 256 -29v35q0 95 -67.5 152t-190.5 57q-184 0 -355 -76v201q191 66 377 66
q216 0 335.5 -106.5t119.5 -323.5v-353zM543 451q-50 0 -93.5 -8.5t-81 -26t-59.5 -50.5t-22 -77q0 -69 53 -107.5t131 -38.5q168 0 285 117v166q-123 25 -213 25z" />
    <glyph glyph-name="uni0431" unicode="&#x431;" horiz-adv-x="1198" 
d="M1120 457q0 -228 -141.5 -356t-370.5 -128q-111 0 -204.5 36.5t-163.5 107t-109 183t-39 257.5q0 244 81.5 412t221.5 256q78 48 160.5 77.5t147.5 41.5t125 23.5t113 33t91 59.5v-213q-46 -35 -108.5 -55t-118 -27t-134 -30t-147.5 -62q-152 -87 -209 -311
q52 77 143 124.5t201 47.5q93 0 176.5 -33.5t147 -93.5t100.5 -151t37 -199zM313 453q0 -121 77.5 -206t213.5 -85q140 0 216.5 84.5t76.5 206.5t-76.5 206t-216.5 84q-89 0 -157.5 -44.5t-101 -109.5t-32.5 -136z" />
    <glyph glyph-name="uni0432" unicode="&#x432;" horiz-adv-x="1122" 
d="M715 0h-578v983h561q146 0 229 -72t83 -190q0 -80 -37.5 -137t-102.5 -86q74 -23 121 -82.5t47 -145.5q0 -121 -80.5 -195.5t-242.5 -74.5zM356 418v-252h306q155 0 155 125q0 127 -151 127h-310zM356 817v-244h293q139 0 139 119q0 66 -40 95.5t-99 29.5h-293z" />
    <glyph glyph-name="uni0433" unicode="&#x433;" horiz-adv-x="903" 
d="M356 0h-219v983h733v-192h-514v-791z" />
    <glyph glyph-name="uni0434" unicode="&#x434;" horiz-adv-x="1316" 
d="M256 -264h-207v444h135q87 154 123 346.5t33 456.5h768v-803h145v-444h-206v264h-791v-264zM545 803q-6 -196 -37.5 -343.5t-93.5 -279.5h473v623h-342z" />
    <glyph glyph-name="uni0435" unicode="&#x435;" horiz-adv-x="1118" 
d="M76 492q0 103 30 190t79.5 146.5t114.5 101.5t134 61t139 19q82 0 152 -18.5t122 -51t92 -77t64.5 -97.5t36.5 -112.5t11 -121t-15 -122.5h-739q18 -124 124 -187t253 -63q170 0 311 69v-188q-142 -68 -352 -68q-115 0 -214.5 33t-176.5 96t-121.5 163.5t-44.5 226.5z
M840 573q5 35 -5.5 76.5t-37 82.5t-82 68t-131.5 27q-117 0 -200 -67.5t-89 -186.5h545z" />
    <glyph glyph-name="uni0436" unicode="&#x436;" horiz-adv-x="1579" 
d="M1569 0h-240l-293 391h-137v-391h-219v391h-135l-293 -391h-240l367 494l-330 489h240l268 -405h123v405h219v-405h125l268 405h238l-328 -489z" />
    <glyph glyph-name="uni0437" unicode="&#x437;" horiz-adv-x="989" 
d="M907 268q0 -133 -120 -214t-341 -81q-215 0 -368 80v189q62 -35 157.5 -58.5t182.5 -23.5q59 0 104 6t83.5 20.5t59.5 42t21 66.5q0 121 -205 121h-200v168h200q185 0 185 110q0 64 -63.5 97.5t-172.5 33.5q-84 0 -176.5 -22.5t-157.5 -57.5v189q163 78 361 78
q216 0 323 -80.5t107 -208.5q0 -85 -47.5 -141.5t-126.5 -77.5q88 -24 141 -85.5t53 -150.5z" />
    <glyph glyph-name="uni0438" unicode="&#x438;" horiz-adv-x="1208" 
d="M326 0h-189v983h219v-643l527 643h188v-983h-219v643z" />
    <glyph glyph-name="uni0439" unicode="&#x439;" horiz-adv-x="1208" 
d="M903 1204q-124 -84 -299 -84t-299 84v178q136 -86 299 -86t299 86v-178zM326 0h-189v983h219v-643l527 643h188v-983h-219v643z" />
    <glyph glyph-name="uni043A" unicode="&#x43a;" horiz-adv-x="1095" 
d="M356 0h-219v983h219v-389h162l283 389h250l-357 -487l396 -496h-252l-324 408h-158v-408z" />
    <glyph glyph-name="uni043B" unicode="&#x43b;" horiz-adv-x="1216" 
d="M528 797q-8 -126 -19 -226t-29.5 -196t-46 -164.5t-65 -122t-89 -80t-115.5 -26.5t-135 26v172q34 -12 63 -12q49 0 86 39t61.5 106.5t41.5 173.5t26 223t15 273h757v-983h-219v797h-332z" />
    <glyph glyph-name="uni043C" unicode="&#x43c;" horiz-adv-x="1386" 
d="M348 0h-211v983h221l334 -518l336 518h221v-983h-211v666l-280 -430h-131l-279 430v-666z" />
    <glyph glyph-name="uni043D" unicode="&#x43d;" horiz-adv-x="1204" 
d="M356 0h-219v983h219v-395h492v395h219v-983h-219v395h-492v-395z" />
    <glyph glyph-name="uni043E" unicode="&#x43e;" horiz-adv-x="1216" 
d="M76 492q0 123 44.5 223.5t119 163.5t169.5 97t199 34q105 0 200 -34t170 -97t119 -163.5t44 -223.5t-44 -223.5t-119 -164t-170 -97.5t-200 -34q-104 0 -199 34t-169.5 97.5t-119 164t-44.5 223.5zM918 492q0 144 -86 230.5t-224 86.5q-139 0 -225 -86.5t-86 -230.5
t86 -231t225 -87q138 0 224 87t86 231z" />
    <glyph glyph-name="uni043F" unicode="&#x43f;" horiz-adv-x="1204" 
d="M356 0h-219v983h930v-983h-219v791h-492v-791z" />
    <glyph glyph-name="uni0440" unicode="&#x440;" horiz-adv-x="1273" 
d="M332 829q150 181 379 181q144 0 256 -70.5t171.5 -188t59.5 -259.5t-59.5 -259.5t-171.5 -188.5t-256 -71q-221 0 -355 154v-578h-219v1434h195v-154zM975 492q0 144 -85.5 234.5t-219.5 90.5q-108 0 -192 -59.5t-122 -145.5v-239q38 -88 122 -147.5t192 -59.5
q134 0 219.5 91t85.5 235z" />
    <glyph glyph-name="uni0441" unicode="&#x441;" horiz-adv-x="1013" 
d="M76 483q0 132 47.5 236t126 166t172.5 93.5t196 31.5q176 0 304 -76v-201q-116 82 -273 82q-68 0 -128.5 -18.5t-111 -56t-80.5 -101.5t-30 -147q0 -81 29 -144.5t78.5 -101.5t110 -58t128.5 -20q155 0 287 76v-203q-142 -68 -326 -68q-80 0 -155.5 19t-144 60
t-119.5 100t-81 144t-30 187z" />
    <glyph glyph-name="uni0442" unicode="&#x442;" horiz-adv-x="966" 
d="M594 0h-219v791h-340v192h897v-192h-338v-791z" />
    <glyph glyph-name="uni0443" unicode="&#x443;" horiz-adv-x="1128" 
d="M580 242l292 741h230l-461 -1116q-142 -342 -395 -342q-60 0 -129 16v187q49 -15 100 -15q159 0 244 230l20 49l-467 991h234z" />
    <glyph glyph-name="uni0444" unicode="&#x444;" horiz-adv-x="1503" 
d="M858 -451h-213v424q-163 5 -292 68.5t-204 181t-75 269.5t75 269t204 180.5t292 68.5v424h213v-424q163 -5 292.5 -68.5t204.5 -180.5t75 -269t-75 -269.5t-204.5 -181t-292.5 -68.5v-424zM293 492q0 -144 94 -234.5t258 -97.5v663q-164 -7 -258 -97t-94 -234zM858 823
v-663q164 7 258 97.5t94 234.5t-94 234t-258 97z" />
    <glyph glyph-name="uni0445" unicode="&#x445;" horiz-adv-x="1044" 
d="M758 983h250l-359 -481l379 -502h-250l-256 348l-256 -348h-250l379 502l-358 481h250l235 -332z" />
    <glyph glyph-name="uni0446" unicode="&#x446;" horiz-adv-x="1255" 
d="M1192 -264h-207v264h-848v983h219v-790h469v790h219v-795h148v-452z" />
    <glyph glyph-name="uni0447" unicode="&#x447;" horiz-adv-x="1089" 
d="M952 0h-219v326q-127 -47 -274 -47q-173 0 -277 90.5t-104 269.5v344h219v-326q0 -102 57.5 -144t167.5 -42q113 0 211 37v475h219v-983z" />
    <glyph glyph-name="uni0448" unicode="&#x448;" horiz-adv-x="1671" 
d="M1534 0h-1397v983h219v-790h371v790h219v-790h369v790h219v-983z" />
    <glyph glyph-name="uni0449" unicode="&#x449;" horiz-adv-x="1744" 
d="M1679 -264h-206v264h-1336v983h219v-790h371v790h219v-790h369v790h219v-795h145v-452z" />
    <glyph glyph-name="uni044A" unicode="&#x44a;" horiz-adv-x="1228" 
d="M518 655h268q181 0 285.5 -91.5t104.5 -235.5q0 -143 -104.5 -235.5t-285.5 -92.5h-487v803h-262v180h481v-328zM518 174h225q98 0 153.5 40t55.5 114q0 75 -55.5 115t-153.5 40h-225v-309z" />
    <glyph glyph-name="uni044B" unicode="&#x44b;" horiz-adv-x="1546" 
d="M625 0h-488v983h219v-328h269q181 0 285 -91.5t104 -235.5q0 -143 -104 -235.5t-285 -92.5zM356 483v-309h226q98 0 153.5 40t55.5 114q0 75 -55.5 115t-153.5 40h-226zM1409 0h-219v983h219v-983z" />
    <glyph glyph-name="uni044C" unicode="&#x44c;" horiz-adv-x="1067" 
d="M625 0h-488v983h219v-328h269q181 0 285 -91.5t104 -235.5q0 -143 -104 -235.5t-285 -92.5zM356 483v-309h226q98 0 153.5 40t55.5 114q0 75 -55.5 115t-153.5 40h-226z" />
    <glyph glyph-name="uni044D" unicode="&#x44d;" horiz-adv-x="1036" 
d="M961 475q0 -103 -31 -188.5t-82 -142.5t-119.5 -96.5t-141.5 -57t-149 -17.5q-108 0 -189 20.5t-167 65.5v191q141 -88 311 -88q68 0 124.5 12.5t104.5 39.5t78.5 74.5t38.5 112.5h-471v181h471q-21 123 -118.5 181t-239.5 58q-72 0 -150 -23.5t-139 -64.5v189
q140 88 316 88q84 0 162.5 -19t150 -61t124.5 -103.5t84.5 -151.5t31.5 -200z" />
    <glyph glyph-name="uni044E" unicode="&#x44e;" horiz-adv-x="1697" 
d="M1622 492q0 -123 -44 -223.5t-118.5 -164t-169.5 -97.5t-200 -34q-125 0 -234 47t-188 146t-99 233h-213v-399h-219v983h219v-399h213q20 134 99 233t188 146t234 47q105 0 200 -34t169.5 -97t118.5 -163.5t44 -223.5zM778 492q0 -145 86.5 -234.5t225.5 -89.5t224 89.5
t85 234.5t-85 234t-224 89q-140 0 -226 -89t-86 -234z" />
    <glyph glyph-name="uni044F" unicode="&#x44f;" horiz-adv-x="1124" 
d="M301 0h-252l270 346q-105 36 -162 118.5t-57 186.5q0 140 101 236t278 96h508v-983h-219v322h-223zM324 649q0 -72 50.5 -111.5t141.5 -39.5h252v303h-252q-91 0 -141.5 -40t-50.5 -112z" />
    <glyph glyph-name="uni0451" unicode="&#x451;" horiz-adv-x="1118" 
d="M915 1260q0 -54 -38.5 -93t-92.5 -39t-92.5 39t-38.5 93t38.5 92.5t92.5 38.5t92.5 -38.5t38.5 -92.5zM489 1260q0 -54 -38 -93t-93 -39q-54 0 -92.5 39t-38.5 93t38.5 92.5t92.5 38.5q55 0 93 -38.5t38 -92.5zM76 492q0 103 30 190t79.5 146.5t114.5 101.5t134 61
t139 19q82 0 152 -18.5t122 -51t92 -77t64.5 -97.5t36.5 -112.5t11 -121t-15 -122.5h-739q18 -124 124 -187t253 -63q170 0 311 69v-188q-142 -68 -352 -68q-115 0 -214.5 33t-176.5 96t-121.5 163.5t-44.5 226.5zM840 573q5 35 -5.5 76.5t-37 82.5t-82 68t-131.5 27
q-117 0 -200 -67.5t-89 -186.5h545z" />
    <glyph glyph-name="Wgrave" unicode="&#x1e80;" horiz-adv-x="2117" 
d="M1837 1434h256l-448 -1434h-256l-328 1069l-328 -1069h-256l-446 1434h254l325 -1160l348 1160h207l348 -1160zM1217 1571h-224l-217 303h254z" />
    <glyph glyph-name="wgrave" unicode="&#x1e81;" horiz-adv-x="1654" 
d="M1391 983h231l-326 -983h-235l-234 705l-233 -705h-234l-327 983h231l221 -743l240 743h205l241 -743zM983 1120h-223l-217 303h254z" />
    <glyph glyph-name="Wacute" unicode="&#x1e82;" horiz-adv-x="2117" 
d="M1837 1434h256l-448 -1434h-256l-328 1069l-328 -1069h-256l-446 1434h254l325 -1160l348 1160h207l348 -1160zM1126 1571h-223l187 303h253z" />
    <glyph glyph-name="wacute" unicode="&#x1e83;" horiz-adv-x="1654" 
d="M1391 983h231l-326 -983h-235l-234 705l-233 -705h-234l-327 983h231l221 -743l240 743h205l241 -743zM893 1120h-223l186 303h254z" />
    <glyph glyph-name="Wdieresis" unicode="&#x1e84;" horiz-adv-x="2117" 
d="M1837 1434h256l-448 -1434h-256l-328 1069l-328 -1069h-256l-446 1434h254l325 -1160l348 1160h207l348 -1160zM1403 1710q0 -54 -38.5 -92.5t-92.5 -38.5t-92.5 38.5t-38.5 92.5t38.5 92.5t92.5 38.5t92.5 -38.5t38.5 -92.5zM977 1710q0 -54 -38 -92.5t-93 -38.5
q-54 0 -92.5 38.5t-38.5 92.5t38.5 92.5t92.5 38.5q55 0 93 -38.5t38 -92.5z" />
    <glyph glyph-name="wdieresis" unicode="&#x1e85;" horiz-adv-x="1654" 
d="M1391 983h231l-326 -983h-235l-234 705l-233 -705h-234l-327 983h231l221 -743l240 743h205l241 -743zM1169 1260q0 -54 -38.5 -93t-92.5 -39t-92.5 39t-38.5 93t38.5 92.5t92.5 38.5t92.5 -38.5t38.5 -92.5zM743 1260q0 -54 -38 -93t-93 -39q-54 0 -92.5 39t-38.5 93
t38.5 92.5t92.5 38.5q55 0 93 -38.5t38 -92.5z" />
    <glyph glyph-name="Ygrave" unicode="&#x1ef2;" horiz-adv-x="1386" 
d="M809 0h-234v526l-561 908h262l416 -695l418 695h262l-563 -908v-526zM848 1571h-223l-217 303h254z" />
    <glyph glyph-name="ygrave" unicode="&#x1ef3;" horiz-adv-x="1128" 
d="M580 242l292 741h230l-461 -1116q-142 -342 -395 -342q-60 0 -129 16v187q49 -15 100 -15q159 0 244 230l20 49l-467 991h234zM702 1120h-223l-217 303h254z" />
    <glyph glyph-name="endash" unicode="&#x2013;" horiz-adv-x="1175" 
d="M1055 406h-934v196h934v-196z" />
    <glyph glyph-name="emdash" unicode="&#x2014;" horiz-adv-x="1568" 
d="M1448 406h-1327v196h1327v-196z" />
    <glyph glyph-name="quoteleft" unicode="&#x2018;" horiz-adv-x="489" 
d="M307 926h-233l176 508h176z" />
    <glyph glyph-name="quoteright" unicode="&#x2019;" horiz-adv-x="481" 
d="M264 926h-178l121 508h231z" />
    <glyph glyph-name="quotesinglbase" unicode="&#x201a;" horiz-adv-x="485" 
d="M201 -303h-178l120 508h232z" />
    <glyph glyph-name="quotedblleft" unicode="&#x201c;" horiz-adv-x="825" 
d="M643 926h-233l176 508h176zM307 926h-233l176 508h176z" />
    <glyph glyph-name="quotedblright" unicode="&#x201d;" horiz-adv-x="817" 
d="M600 926h-178l121 508h231zM264 926h-178l121 508h231z" />
    <glyph glyph-name="quotedblbase" unicode="&#x201e;" horiz-adv-x="821" 
d="M537 -303h-179l121 508h232zM201 -303h-178l120 508h232z" />
    <glyph glyph-name="dagger" unicode="&#x2020;" horiz-adv-x="1077" 
d="M657 -451h-233v1219h-361v215h361v451h233v-451h357v-215h-357v-1219z" />
    <glyph glyph-name="daggerdbl" unicode="&#x2021;" horiz-adv-x="1187" 
d="M711 -451h-234v557h-362v213h362v451h-362v213h362v451h234v-451h362v-213h-362v-451h362v-213h-362v-557z" />
    <glyph glyph-name="bullet" unicode="&#x2022;" horiz-adv-x="729" 
d="M156 717q0 98 60 150.5t149 52.5q90 0 149 -52.5t59 -150.5t-59 -150.5t-149 -52.5q-89 0 -149 52.5t-60 150.5z" />
    <glyph glyph-name="ellipsis" unicode="&#x2026;" horiz-adv-x="1347" 
d="M1249 113q0 -66 -39.5 -101t-99.5 -35q-58 0 -97.5 35t-39.5 101q0 63 39.5 97t97.5 34q60 0 99.5 -34t39.5 -97zM375 113q0 -66 -39 -101t-98 -35t-99.5 35t-40.5 101q0 63 40.5 97t99.5 34t98 -34t39 -97zM811 113q0 -66 -39 -101t-98 -35t-99 35t-40 101q0 63 40 97
t99 34t98 -34t39 -97z" />
    <glyph glyph-name="perthousand" unicode="&#x2030;" horiz-adv-x="2674" 
d="M604 -123h-182l838 1679h182zM770 1124q0 -157 -101.5 -246.5t-248.5 -89.5q-149 0 -251.5 89.5t-102.5 246.5t102.5 246.5t251.5 89.5q147 0 248.5 -89.5t101.5 -246.5zM254 1124q0 -69 42.5 -115t121.5 -46q78 0 119 46t41 115t-41 115.5t-119 46.5q-79 0 -121.5 -46.5
t-42.5 -115.5zM1796 309q0 -157 -101.5 -246.5t-248.5 -89.5q-149 0 -251.5 89.5t-102.5 246.5t102.5 246.5t251.5 89.5q147 0 248.5 -89.5t101.5 -246.5zM1282 309q0 -69 42.5 -115.5t121.5 -46.5q78 0 119 46.5t41 115.5t-41 115.5t-119 46.5q-79 0 -121.5 -46.5
t-42.5 -115.5zM2611 309q0 -155 -102 -245.5t-248 -90.5q-148 0 -251 90.5t-103 245.5t103 245.5t251 90.5q146 0 248 -90.5t102 -245.5zM2095 309q0 -69 42.5 -115.5t121.5 -46.5q78 0 119 46.5t41 115.5t-41 115.5t-119 46.5q-79 0 -121.5 -46.5t-42.5 -115.5z" />
    <glyph glyph-name="guilsinglleft" unicode="&#x2039;" horiz-adv-x="651" 
d="M561 109h-227l-258 362v41l258 362h227l-272 -382z" />
    <glyph glyph-name="guilsinglright" unicode="&#x203a;" horiz-adv-x="651" 
d="M317 109h-227l270 383l-270 382h227l258 -362v-41z" />
    <glyph glyph-name="fraction" unicode="&#x2044;" horiz-adv-x="360" 
d="M-248 -29h-80l938 1489h82z" />
    <glyph glyph-name="Euro" unicode="&#x20ac;" horiz-adv-x="1490" 
d="M1378 68q-195 -95 -407 -95q-158 0 -301 55t-255.5 171.5t-156.5 277.5h-182v162h155v55v60h-155v161h184q45 162 155 278t252.5 171t303.5 55q217 0 407 -94v-227q-151 106 -368 106q-106 0 -201 -30.5t-173.5 -97t-119.5 -161.5h604v-161h-647q-4 -36 -4 -60
q0 -37 2 -55h649v-162h-604q61 -139 198 -214t300 -75q219 0 364 111v-231z" />
    <glyph glyph-name="trademark" unicode="&#x2122;" horiz-adv-x="1384" 
d="M754 909h-127v525h127l180 -256l178 256h127v-525h-125v338l-147 -211h-68l-145 211v-338zM379 909h-127v410h-166v115h459v-115h-166v-410z" />
    <glyph glyph-name="oneeighth" unicode="&#x215b;" horiz-adv-x="1865" 
d="M1124 623q0 92 81.5 160.5t236.5 68.5q144 0 233 -71t92 -169q3 -112 -98 -192q127 -71 127 -197q0 -47 -20 -88.5t-59.5 -76t-108 -54.5t-158.5 -20q-172 0 -263 72t-91 177q0 57 32 114t93 97q-97 75 -97 179zM1464 346q-6 2 -49 16t-67 23q-43 -27 -63.5 -62.5
t-20.5 -68.5q2 -60 52 -93.5t142 -33.5q71 0 120.5 23.5t49.5 66.5q0 27 -10.5 46.5t-35 34t-43.5 22t-57 20.5zM1602 592q0 52 -44 84.5t-120 32.5q-65 0 -106.5 -23.5t-41.5 -60.5q0 -13 2.5 -25t9 -21.5t12 -17t18 -15.5t19.5 -12.5t24.5 -11t24.5 -9.5t27.5 -10t26.5 -9
q27 -6 86 -25q66 63 62 123zM455 -29h-80l938 1489h82zM322 1393h122v-684h148v-152h-492v152h179v512l-173 -62v156z" />
    <glyph glyph-name="threeeighths" unicode="&#x215c;" horiz-adv-x="1918" 
d="M1176 623q0 43 19 83t56 73t99.5 53t142.5 20q144 0 233.5 -71t92.5 -169q3 -112 -99 -192q127 -71 127 -197q0 -47 -20 -88.5t-59.5 -76t-108 -54.5t-158.5 -20q-172 0 -263 72t-91 177q0 57 32 114t93 97q-96 74 -96 179zM1516 346q-8 3 -50.5 16.5t-66.5 22.5
q-43 -27 -63.5 -62.5t-20.5 -68.5q2 -60 52 -93.5t142 -33.5q71 0 120.5 23.5t49.5 66.5q0 35 -23.5 60.5t-46 35t-76.5 27.5q-11 4 -17 6zM1653 592q0 52 -44 84.5t-120 32.5q-65 0 -106.5 -23.5t-41.5 -60.5q0 -13 2.5 -25t9 -21.5t12 -17t18 -15.5t19.5 -12.5t24.5 -11
t24.5 -9.5t27.5 -10t26.5 -9q27 -6 86 -25q66 63 62 123zM526 -29h-80l938 1489h82zM680 1188q0 -62 -31 -109.5t-78 -68.5q59 -25 100.5 -76.5t41.5 -134.5t-47 -140.5t-119 -82.5t-162 -25q-163 0 -291 57v160q117 -66 277 -66q182 0 182 113q0 107 -156 107h-137v151h117
q143 0 143 96q0 99 -164 99q-127 0 -247 -72v160q117 63 270 63q136 0 218.5 -60.5t82.5 -170.5z" />
    <glyph glyph-name="fiveeighths" unicode="&#x215d;" horiz-adv-x="1904" 
d="M1163 623q0 92 81.5 160.5t236.5 68.5q144 0 233 -71t92 -169q3 -112 -98 -192q127 -71 127 -197q0 -47 -20 -88.5t-59.5 -76t-108 -54.5t-158.5 -20q-172 0 -263 72t-91 177q0 57 32 114t93 97q-97 75 -97 179zM1503 346q-8 3 -50.5 16.5t-66.5 22.5q-43 -27 -63 -62.5
t-20 -68.5q2 -60 52 -93.5t142 -33.5q71 0 120.5 23.5t49.5 66.5q0 27 -10.5 46.5t-35 34t-43.5 22t-57 20.5zM1640 592q0 52 -43.5 84.5t-119.5 32.5q-65 0 -106.5 -23.5t-41.5 -60.5q0 -13 2.5 -25t9 -21.5t12 -17t18 -15.5t19.5 -12.5t24.5 -11t24.5 -9.5t27.5 -10
t26.5 -9q27 -6 86 -25q65 62 61 123zM514 -29h-80l938 1489h82zM141 1393h525v-152h-369l-10 -156q54 13 102 13q64 0 118.5 -15t100.5 -46t72.5 -86.5t26.5 -129.5q0 -135 -101 -207.5t-250 -72.5q-154 0 -268 57v158q101 -64 248 -64q92 0 146.5 32t54.5 99
q0 133 -215 133q-106 0 -209 -36z" />
    <glyph glyph-name="seveneighths" unicode="&#x215e;" horiz-adv-x="1738" 
d="M330 -29h-80l938 1489h82zM995 623q0 92 81.5 160.5t236.5 68.5q144 0 233 -71t92 -169q3 -112 -98 -192q127 -71 127 -197q0 -47 -20 -88.5t-59.5 -76t-108 -54.5t-158.5 -20q-172 0 -263 72t-91 177q0 57 32 114t93 97q-97 75 -97 179zM1335 346q-6 2 -49 16t-67 23
q-43 -27 -63.5 -62.5t-20.5 -68.5q2 -60 52 -93.5t142 -33.5q71 0 120.5 23.5t49.5 66.5q0 27 -10.5 46.5t-35 34t-43.5 22t-57 20.5zM1473 592q0 52 -44 84.5t-120 32.5q-65 0 -106.5 -23.5t-41.5 -60.5q0 -13 2.5 -25t9 -21.5t12 -17t18 -15.5t19.5 -12.5t24.5 -11
t24.5 -9.5t27.5 -10t26.5 -9q27 -6 86 -25q66 63 62 123zM365 557h-183l318 684h-428v152h614v-138z" />
    <glyph glyph-name="partialdiff" unicode="&#x2202;" horiz-adv-x="1208" 
d="M1114 573q0 -289 -142.5 -444.5t-383.5 -155.5q-222 0 -366 133t-144 347q0 200 130 328t318 128q127 0 230 -52t149 -138q-4 34 -10 51q-22 111 -73.5 196.5t-118 137.5t-152 84.5t-168.5 44t-174 8.5v203q95 0 186 -14t182 -45t169.5 -78.5t147 -118t117 -158
t76 -204.5t27.5 -253zM299 449q0 -123 77.5 -205t217.5 -82q133 0 203.5 74t85.5 190q-3 125 -84.5 212t-216.5 87q-131 0 -207 -80t-76 -196z" />
    <glyph glyph-name="emptyset" unicode="&#x2205;" horiz-adv-x="1652" 
d="M1505 1434l-159 -187q106 -102 165.5 -239t59.5 -291q0 -203 -100 -374t-271 -270.5t-373 -99.5q-245 0 -446 148l-105 -121h-131l160 186q-105 103 -164 241t-59 290t59 289.5t158.5 237t237.5 158t290 58.5q246 0 443 -147l104 121h131zM825 1348q-171 0 -316 -84.5
t-229.5 -230t-84.5 -316.5q0 -129 48 -243t136 -202l817 955q-166 121 -371 121zM455 209q164 -123 370 -123q129 0 246 50t201 134.5t134 201.5t50 245q0 127 -48 242t-134 204z" />
    <glyph glyph-name="product" unicode="&#x220f;" horiz-adv-x="1572" 
d="M494 -451h-234v1682h-188v203h1429v-203h-188v-1682h-234v1682h-585v-1682z" />
    <glyph glyph-name="summation" unicode="&#x2211;" horiz-adv-x="1177" 
d="M1077 0h-997v129l514 588l-514 588v129h993v-215h-629l418 -480v-45l-418 -477h633v-217z" />
    <glyph glyph-name="minus" unicode="&#x2212;" horiz-adv-x="1060" 
d="M930 612h-799v195h799v-195z" />
    <glyph glyph-name="radical" unicode="&#x221a;" horiz-adv-x="1538" 
d="M791 0h-199l-334 768h-209v215h352l291 -715l617 1329h243z" />
    <glyph glyph-name="infinity" unicode="&#x221e;" horiz-adv-x="1773" 
d="M889 885q40 53 78 92t86.5 74.5t107.5 54t125 18.5q161 0 269 -106t108 -285t-108 -285t-269 -106q-67 0 -126 18.5t-108.5 54.5t-87.5 75t-79 92q-54 -72 -105.5 -120.5t-128.5 -84t-164 -35.5q-161 0 -268.5 106t-107.5 285t107.5 285t268.5 106q88 0 166 -35.5
t129 -83.5t107 -120zM778 731q-68 98 -127.5 148.5t-134.5 50.5q-83 0 -137.5 -50t-54.5 -147t54.5 -146.5t137.5 -49.5q75 0 135 49t127 145zM1450 733q0 97 -54.5 147t-138.5 50q-52 0 -100 -27.5t-83 -66t-79 -101.5q68 -98 127.5 -148t134.5 -50q84 0 138.5 49.5
t54.5 146.5z" />
    <glyph glyph-name="integral" unicode="&#x222b;" horiz-adv-x="901" 
d="M342 1286q0 94 30.5 162.5t83 105.5t111 53.5t125.5 16.5q101 0 191 -33v-196q-82 28 -152 28q-170 0 -170 -159v-1403q0 -94 -31 -162.5t-83.5 -105.5t-111.5 -53.5t-126 -16.5q-101 0 -191 33v196q82 -28 140 -28q38 0 67.5 6t57.5 22t43.5 49t15.5 82v1403z" />
    <glyph glyph-name="approxequal" unicode="&#x2248;" horiz-adv-x="1214" 
d="M1092 1038q12 -130 -54.5 -204t-183.5 -74q-62 0 -149.5 28t-170 55.5t-133.5 26.5q-77 0 -71 -86h-195q-10 131 57.5 205t178.5 74q67 0 153 -27.5t166 -54.5t135 -27q80 0 72 84h195zM1092 688q12 -131 -54.5 -205.5t-183.5 -74.5q-76 0 -235 56t-218 56q-77 0 -71 -86
h-195q-10 131 57.5 205t178.5 74q54 0 120 -17.5t117.5 -38t112 -38t104.5 -17.5q80 0 72 86h195z" />
    <glyph glyph-name="notequal" unicode="&#x2260;" horiz-adv-x="1159" 
d="M379 219h-174l119 207h-195v195h307l113 192h-420v197h533l118 204h174l-118 -204h194v-197h-307l-113 -192h420v-195h-532z" />
    <glyph glyph-name="lessequal" unicode="&#x2264;" horiz-adv-x="1071" 
d="M918 567v-202l-791 305v219l791 305v-205l-586 -211zM918 0h-791v195h791v-195z" />
    <glyph glyph-name="greaterequal" unicode="&#x2265;" horiz-adv-x="1073" 
d="M944 676l-790 -305v202l587 211l-587 211v205l790 -305v-219zM944 0h-790v195h790v-195z" />
    <glyph glyph-name="lozenge" unicode="&#x25ca;" horiz-adv-x="1185" 
d="M715 0h-244l-401 717l401 717h244l401 -717zM303 717l289 -506l293 506l-293 506z" />
    <glyph glyph-name="i.loclTRK" horiz-adv-x="501" 
d="M141 983h219v-983h-219v983zM100 1249q0 66 41.5 101.5t102.5 35.5q62 0 102.5 -35.5t40.5 -101.5q0 -69 -40.5 -105t-102.5 -36q-61 0 -102.5 36.5t-41.5 104.5z" />
    <glyph glyph-name="a.ss01" horiz-adv-x="1273" 
d="M940 156q-145 -183 -377 -183q-144 0 -256.5 71t-171.5 188.5t-59 259.5t59 259.5t171 188t257 70.5q231 0 377 -181v154h197v-983h-197v156zM297 492q0 -144 86 -235t219 -91q109 0 192 59.5t121 147.5v239q-38 86 -121 145.5t-192 59.5q-133 0 -219 -90.5t-86 -234.5z
" />
    <glyph glyph-name="aacute.ss01" horiz-adv-x="1273" 
d="M940 156q-145 -183 -377 -183q-144 0 -256.5 71t-171.5 188.5t-59 259.5t59 259.5t171 188t257 70.5q231 0 377 -181v154h197v-983h-197v156zM297 492q0 -144 86 -235t219 -91q109 0 192 59.5t121 147.5v239q-38 86 -121 145.5t-192 59.5q-133 0 -219 -90.5t-86 -234.5z
M705 1120h-224l187 303h254z" />
    <glyph glyph-name="abreve.ss01" horiz-adv-x="1273" 
d="M940 156q-145 -183 -377 -183q-144 0 -256.5 71t-171.5 188.5t-59 259.5t59 259.5t171 188t257 70.5q231 0 377 -181v154h197v-983h-197v156zM297 492q0 -144 86 -235t219 -91q109 0 192 59.5t121 147.5v239q-38 86 -121 145.5t-192 59.5q-133 0 -219 -90.5t-86 -234.5z
M940 1192q-126 -88 -301 -88q-177 0 -303 88v188q135 -88 303 -88q166 0 301 88v-188z" />
    <glyph glyph-name="acircumflex.ss01" horiz-adv-x="1273" 
d="M940 156q-145 -183 -377 -183q-144 0 -256.5 71t-171.5 188.5t-59 259.5t59 259.5t171 188t257 70.5q231 0 377 -181v154h197v-983h-197v156zM297 492q0 -144 86 -235t219 -91q109 0 192 59.5t121 147.5v239q-38 86 -121 145.5t-192 59.5q-133 0 -219 -90.5t-86 -234.5z
M547 1423h194l265 -307h-228l-133 156l-135 -156h-227z" />
    <glyph glyph-name="adieresis.ss01" horiz-adv-x="1273" 
d="M940 156q-145 -183 -377 -183q-144 0 -256.5 71t-171.5 188.5t-59 259.5t59 259.5t171 188t257 70.5q231 0 377 -181v154h197v-983h-197v156zM297 492q0 -144 86 -235t219 -91q109 0 192 59.5t121 147.5v239q-38 86 -121 145.5t-192 59.5q-133 0 -219 -90.5t-86 -234.5z
M981 1260q0 -54 -38.5 -93t-92.5 -39t-92.5 39t-38.5 93t38.5 92.5t92.5 38.5t92.5 -38.5t38.5 -92.5zM555 1260q0 -54 -38 -93t-93 -39q-54 0 -92.5 39t-38.5 93t38.5 92.5t92.5 38.5q55 0 93 -38.5t38 -92.5z" />
    <glyph glyph-name="agrave.ss01" horiz-adv-x="1273" 
d="M940 156q-145 -183 -377 -183q-144 0 -256.5 71t-171.5 188.5t-59 259.5t59 259.5t171 188t257 70.5q231 0 377 -181v154h197v-983h-197v156zM297 492q0 -144 86 -235t219 -91q109 0 192 59.5t121 147.5v239q-38 86 -121 145.5t-192 59.5q-133 0 -219 -90.5t-86 -234.5z
M795 1120h-224l-217 303h254z" />
    <glyph glyph-name="amacron.ss01" horiz-adv-x="1273" 
d="M940 156q-145 -183 -377 -183q-144 0 -256.5 71t-171.5 188.5t-59 259.5t59 259.5t171 188t257 70.5q231 0 377 -181v154h197v-983h-197v156zM297 492q0 -144 86 -235t219 -91q109 0 192 59.5t121 147.5v239q-38 86 -121 145.5t-192 59.5q-133 0 -219 -90.5t-86 -234.5z
M319 1323h639v-184h-639v184z" />
    <glyph glyph-name="aogonek.ss01" horiz-adv-x="1273" 
d="M940 983h197v-983h-2q-78 -54 -122 -118t-42 -115q-1 -35 20.5 -55.5t59.5 -20.5q39 0 84 20v-157q-65 -33 -150 -33q-103 0 -160 54.5t-57 137.5q2 73 44.5 152.5t127.5 154.5v136q-145 -183 -377 -183q-144 0 -256.5 71t-171.5 188.5t-59 259.5t59 259.5t171 188
t257 70.5q231 0 377 -181v154zM602 166q109 0 192 59.5t121 147.5v239q-38 86 -121 145.5t-192 59.5q-133 0 -219 -90.5t-86 -234.5t86 -235t219 -91z" />
    <glyph glyph-name="aring.ss01" horiz-adv-x="1273" 
d="M940 156q-145 -183 -377 -183q-144 0 -256.5 71t-171.5 188.5t-59 259.5t59 259.5t171 188t257 70.5q231 0 377 -181v154h197v-983h-197v156zM297 492q0 -144 86 -235t219 -91q109 0 192 59.5t121 147.5v239q-38 86 -121 145.5t-192 59.5q-133 0 -219 -90.5t-86 -234.5z
M883 1300q0 -106 -71.5 -170.5t-172.5 -64.5q-103 0 -175.5 64.5t-72.5 170.5q0 105 73 169.5t175 64.5q101 0 172.5 -64.5t71.5 -169.5zM537 1300q0 -46 29 -74t71 -28t71 28t29 74q0 44 -29 72.5t-71 28.5t-71 -28.5t-29 -72.5z" />
    <glyph glyph-name="atilde.ss01" horiz-adv-x="1273" 
d="M940 156q-145 -183 -377 -183q-144 0 -256.5 71t-171.5 188.5t-59 259.5t59 259.5t171 188t257 70.5q231 0 377 -181v154h197v-983h-197v156zM297 492q0 -144 86 -235t219 -91q109 0 192 59.5t121 147.5v239q-38 86 -121 145.5t-192 59.5q-133 0 -219 -90.5t-86 -234.5z
M989 1346q22 -114 -31.5 -182t-146.5 -68q-56 0 -117 21.5t-108.5 43t-71.5 21.5q-32 0 -46 -22t-9 -52h-170q-22 112 31.5 181t144.5 69q55 0 116 -21.5t110 -43t73 -21.5q66 0 55 74h170z" />
    <glyph glyph-name="ae.ss01" horiz-adv-x="1984" 
d="M940 156q-145 -183 -377 -183q-144 0 -256.5 71t-171.5 188.5t-59 259.5t59 259.5t171 188t257 70.5q231 0 377 -181v154h190v-160q56 91 145.5 139t199.5 48q89 0 162.5 -25t124 -68.5t85.5 -102t50.5 -127t16 -141.5t-15.5 -147h-741q13 -80 70 -135t135.5 -79.5
t173.5 -24.5q166 0 297 69v-182q-135 -74 -311 -74q-125 0 -226.5 47t-165.5 144v-164h-190v156zM297 492q0 -144 86 -235t219 -91q109 0 192 59.5t121 147.5v239q-38 86 -121 145.5t-192 59.5q-133 0 -219 -90.5t-86 -234.5zM1446 827q-118 0 -200.5 -69t-88.5 -193h545
q4 30 -1 63.5t-22.5 69.5t-46 64t-76.5 46.5t-110 18.5z" />
    <glyph glyph-name="y.ss01" horiz-adv-x="1206" 
d="M1069 0q-2 -124 -46.5 -218t-119.5 -149.5t-166.5 -82.5t-197.5 -27q-103 0 -202.5 23t-168.5 63v194q62 -43 154 -65.5t188 -22.5q70 0 127.5 14t107.5 45t78 90.5t27 141.5v105q-58 -62 -140 -100t-178 -38q-191 0 -298 111.5t-107 290.5v608h219v-580
q0 -118 59 -176.5t170 -58.5q86 0 156.5 47.5t118.5 116.5v651h219v-983z" />
    <glyph glyph-name="yacute.ss01" horiz-adv-x="1206" 
d="M1069 0q-2 -124 -46.5 -218t-119.5 -149.5t-166.5 -82.5t-197.5 -27q-103 0 -202.5 23t-168.5 63v194q62 -43 154 -65.5t188 -22.5q70 0 127.5 14t107.5 45t78 90.5t27 141.5v105q-58 -62 -140 -100t-178 -38q-191 0 -298 111.5t-107 290.5v608h219v-580
q0 -118 59 -176.5t170 -58.5q86 0 156.5 47.5t118.5 116.5v651h219v-983zM668 1120h-224l187 303h254z" />
    <glyph glyph-name="ycircumflex.ss01" horiz-adv-x="1206" 
d="M1069 0q-2 -124 -46.5 -218t-119.5 -149.5t-166.5 -82.5t-197.5 -27q-103 0 -202.5 23t-168.5 63v194q62 -43 154 -65.5t188 -22.5q70 0 127.5 14t107.5 45t78 90.5t27 141.5v105q-58 -62 -140 -100t-178 -38q-191 0 -298 111.5t-107 290.5v608h219v-580
q0 -118 59 -176.5t170 -58.5q86 0 156.5 47.5t118.5 116.5v651h219v-983zM510 1423h195l264 -307h-228l-133 156l-135 -156h-227z" />
    <glyph glyph-name="ydieresis.ss01" horiz-adv-x="1206" 
d="M1069 0q-2 -124 -46.5 -218t-119.5 -149.5t-166.5 -82.5t-197.5 -27q-103 0 -202.5 23t-168.5 63v194q62 -43 154 -65.5t188 -22.5q70 0 127.5 14t107.5 45t78 90.5t27 141.5v105q-58 -62 -140 -100t-178 -38q-191 0 -298 111.5t-107 290.5v608h219v-580
q0 -118 59 -176.5t170 -58.5q86 0 156.5 47.5t118.5 116.5v651h219v-983zM944 1260q0 -54 -38.5 -93t-92.5 -39t-92.5 39t-38.5 93t38.5 92.5t92.5 38.5t92.5 -38.5t38.5 -92.5zM518 1260q0 -54 -38 -93t-93 -39q-54 0 -92.5 39t-38.5 93t38.5 92.5t92.5 38.5q55 0 93 -38.5
t38 -92.5z" />
    <glyph glyph-name="ygrave.ss01" horiz-adv-x="1206" 
d="M1069 0q-2 -124 -46.5 -218t-119.5 -149.5t-166.5 -82.5t-197.5 -27q-103 0 -202.5 23t-168.5 63v194q62 -43 154 -65.5t188 -22.5q70 0 127.5 14t107.5 45t78 90.5t27 141.5v105q-58 -62 -140 -100t-178 -38q-191 0 -298 111.5t-107 290.5v608h219v-580
q0 -118 59 -176.5t170 -58.5q86 0 156.5 47.5t118.5 116.5v651h219v-983zM758 1120h-223l-218 303h254z" />
    <glyph glyph-name="f_b" horiz-adv-x="2009" 
d="M1092 856q134 154 354 154q144 0 256 -70.5t171.5 -188t59.5 -259.5t-59.5 -259.5t-171.5 -188.5t-256 -71q-230 0 -379 183v-156h-195v1225q-104 43 -215 43q-98 0 -156.5 -45.5t-58.5 -137.5v-102h287v-192h-287v-791h-219v791h-178v192h178v107q0 177 111 273.5
t287 96.5q153 0 286 -59l185 37v-582zM1092 373q38 -88 121.5 -147.5t191.5 -59.5q134 0 219.5 91t85.5 235t-85.5 234.5t-219.5 90.5q-108 0 -191.5 -59.5t-121.5 -145.5v-239z" />
    <glyph glyph-name="f_f_b" horiz-adv-x="2658" 
d="M1741 856q134 154 354 154q144 0 256.5 -70.5t172 -188t59.5 -259.5t-59.5 -259.5t-172 -188.5t-256.5 -71q-230 0 -379 183v-156h-194v1245q-101 43 -215 43q-98 0 -156.5 -47t-58.5 -149v-109h288v-192h-288v-791h-220v791h-430v-791h-219v791h-178v192h178v86
q0 180 113.5 275.5t292.5 95.5q161 0 332 -82q108 123 309 123q151 0 286 -60l185 37v-602zM874 983v113q0 52 9 98q-99 57 -226 57q-98 0 -156.5 -46t-58.5 -136v-86h432zM1741 373q38 -88 121.5 -147.5t191.5 -59.5q134 0 219.5 91t85.5 235t-85.5 234.5t-219.5 90.5
q-108 0 -191.5 -59.5t-121.5 -145.5v-239z" />
    <glyph glyph-name="f_f_h" horiz-adv-x="2588" 
d="M1741 874q59 60 141 98t176 38q184 0 295 -112.5t111 -289.5v-608h-219v580q0 115 -63.5 175t-166.5 60q-86 0 -156 -47t-118 -117v-651h-219v1245q-101 43 -215 43q-98 0 -156.5 -47t-58.5 -149v-109h288v-192h-288v-791h-220v791h-430v-791h-219v791h-178v192h178v86
q0 180 113.5 275.5t292.5 95.5q161 0 332 -82q108 123 309 123q151 0 286 -60l185 37v-584zM874 983v113q0 52 9 98q-99 57 -226 57q-98 0 -156.5 -46t-58.5 -136v-86h432z" />
    <glyph glyph-name="f_f_j" horiz-adv-x="1861" 
d="M1720 -168q0 -87 -27 -150.5t-73 -96.5t-96.5 -47.5t-108.5 -14.5q-91 0 -155 28v185q47 -21 94 -21q147 0 147 154v922h-409v-791h-220v791h-430v-791h-219v791h-178v192h178v86q0 180 113.5 275.5t292.5 95.5q161 0 332 -82q114 129 333 129q158 0 318 -68v-200
q-144 75 -289 75q-105 0 -168 -48.5t-63 -151.5v-111h628v-1151zM442 1069v-86h432v113q0 52 9 98q-99 57 -226 57q-98 0 -156.5 -46t-58.5 -136z" />
    <glyph glyph-name="f_f_k" horiz-adv-x="2476" 
d="M2435 983l-356 -489l395 -494h-250l-326 408h-157v-408h-219v1245q-101 43 -215 43q-98 0 -156.5 -47t-58.5 -149v-109h288v-192h-288v-791h-220v791h-430v-791h-219v791h-178v192h178v86q0 180 113.5 275.5t292.5 95.5q161 0 332 -82q108 123 309 123q151 0 286 -60
l185 37v-864h166l282 389h246zM874 983v113q0 52 9 98q-99 57 -226 57q-98 0 -156.5 -46t-58.5 -136v-86h432z" />
    <glyph glyph-name="f_h" horiz-adv-x="1939" 
d="M1092 874q59 60 141 98t176 38q184 0 295 -112.5t111 -289.5v-608h-220v580q0 116 -63 175.5t-166 59.5q-86 0 -156 -47t-118 -117v-651h-220v1225q-104 43 -215 43q-98 0 -156.5 -45.5t-58.5 -137.5v-102h287v-192h-287v-791h-219v791h-178v192h178v107q0 177 111 273.5
t287 96.5q153 0 286 -59l185 37v-564z" />
    <glyph glyph-name="f_i" horiz-adv-x="1200" 
d="M442 983h617v-983h-219v791h-398v-791h-219v791h-178v192h178v100q0 182 116 279.5t306 97.5q160 0 318 -67v-201q-149 76 -289 76q-105 0 -168.5 -46.5t-63.5 -140.5v-98z" />
    <glyph glyph-name="f_j" horiz-adv-x="1200" 
d="M442 983h617v-1151q0 -70 -18.5 -125.5t-48 -89t-70.5 -55.5t-82 -30.5t-86 -8.5q-94 0 -158 28v185q51 -21 94 -21q150 0 150 154v922h-398v-791h-219v791h-178v192h178v100q0 182 116 279.5t306 97.5q160 0 318 -67v-201q-149 76 -289 76q-105 0 -168.5 -46.5
t-63.5 -140.5v-98z" />
    <glyph glyph-name="f_k" horiz-adv-x="1826" 
d="M1786 983l-356 -489l395 -494h-250l-326 408h-157v-408h-220v1225q-104 43 -215 43q-98 0 -156.5 -45.5t-58.5 -137.5v-102h287v-192h-287v-791h-219v791h-178v192h178v107q0 177 111 273.5t287 96.5q153 0 286 -59l185 37v-844h165l283 389h246z" />
    <glyph glyph-name="f_l" horiz-adv-x="1232" 
d="M621 1460q153 0 286 -59l185 37v-1438h-220v1225q-104 43 -215 43q-98 0 -156.5 -45.5t-58.5 -137.5v-102h287v-192h-287v-791h-219v791h-178v192h178v107q0 177 111 273.5t287 96.5z" />
    <glyph glyph-name="uni0414.loclBGR" horiz-adv-x="1650" 
d="M266 -326h-213v539h160l485 1221h256l486 -1221h157v-539h-211v326h-1120v-326zM825 1186l-366 -973h733z" />
    <glyph glyph-name="uni041B.loclBGR" horiz-adv-x="1425" 
d="M592 1434h242l577 -1434h-252l-446 1163l-447 -1163h-252z" />
    <glyph glyph-name="uni0424.loclBGR" horiz-adv-x="1855" 
d="M1042 -199h-229v193q-224 12 -391 111t-252.5 257.5t-85.5 354.5t85.5 354.5t252.5 257.5t391 111v192h229v-192q168 -10 306.5 -69.5t230.5 -155.5t142.5 -224t50.5 -274t-50.5 -274t-142.5 -224t-230.5 -155.5t-306.5 -69.5v-193zM322 717q0 -75 16.5 -144.5t54.5 -134
t94 -113.5t139.5 -81t186.5 -39v1024q-103 -7 -186.5 -39t-139.5 -81t-94 -113.5t-54.5 -134t-16.5 -144.5zM1042 1229v-1024q102 7 185.5 39.5t140 81t94.5 113t55 134t17 144.5t-17 144.5t-55 134t-94 113.5t-140 81t-186 39z" />
    <glyph glyph-name="uni0432.loclBGR" horiz-adv-x="1200" 
d="M1026 1108q0 -91 -41.5 -165t-142.5 -132q129 -37 206.5 -139.5t77.5 -245.5q0 -196 -138 -324.5t-357 -128.5q-112 0 -204.5 34t-163 102t-109.5 179t-39 257v264q0 307 133 479t379 172q177 0 288 -101.5t111 -250.5zM809 1087q0 71 -50 125t-138 54q-133 0 -210 -108
t-77 -341l254 45q221 46 221 225zM336 539q0 -367 291 -367q130 0 204 72t74 188q0 125 -82 198t-227 48l-260 -45v-94z" />
    <glyph glyph-name="uni0433.loclBGR" horiz-adv-x="987" 
d="M895 68q-70 -44 -173.5 -69.5t-211.5 -25.5q-96 0 -173 15t-139.5 48.5t-97 92.5t-34.5 141q0 78 34 134t87.5 86t119 50t131 33.5t119 29t87.5 43.5t34 71q0 58 -55 84t-138 26q-92 0 -188 -25.5t-172 -66.5v191q178 84 377 84q63 0 119.5 -9.5t108.5 -32t89.5 -56
t59.5 -84t22 -113.5q0 -78 -34 -135t-87.5 -87.5t-119 -51.5t-131 -34.5t-119 -29t-87.5 -42.5t-34 -67q0 -63 58 -86.5t175 -23.5q98 0 199 27t174 79v-196z" />
    <glyph glyph-name="uni0434.loclBGR" horiz-adv-x="1273" 
d="M76 492q0 142 59 259.5t171 188t257 70.5q231 0 377 -181v154h197v-971q0 -128 -46 -225t-125 -153t-174.5 -83.5t-205.5 -27.5q-224 0 -406 92v201q173 -101 377 -101q77 0 139.5 15t113.5 47.5t79.5 90.5t28.5 138v125q-134 -158 -355 -158q-144 0 -256.5 71
t-171.5 188.5t-59 259.5zM915 612q-38 86 -121 145.5t-192 59.5q-133 0 -219 -90.5t-86 -234.5t86 -235t219 -91q109 0 192 55.5t121 136.5v254z" />
    <glyph glyph-name="uni0436.loclBGR" horiz-adv-x="1579" 
d="M252 0h-240l367 492l-330 491h240l264 -397h127v848h219v-848h129l264 397h238l-328 -491l367 -492h-240l-299 399h-131v-399h-219v399h-129z" />
    <glyph glyph-name="uni0438.loclBGR" horiz-adv-x="1206" 
d="M850 983h219v-983h-195v135q-59 -71 -147.5 -116.5t-194.5 -45.5q-191 0 -298 111.5t-107 290.5v608h219v-580q0 -118 59 -176.5t170 -58.5q86 0 156.5 47.5t118.5 116.5v651z" />
    <glyph glyph-name="uni0439.loclBGR" horiz-adv-x="1206" 
d="M901 1204q-124 -84 -299 -84t-299 84v178q136 -86 299 -86t299 86v-178zM850 983h219v-983h-195v135q-59 -71 -147.5 -116.5t-194.5 -45.5q-191 0 -298 111.5t-107 290.5v608h219v-580q0 -118 59 -176.5t170 -58.5q86 0 156.5 47.5t118.5 116.5v651z" />
    <glyph glyph-name="uni043A.loclBGR" horiz-adv-x="1095" 
d="M1090 0h-252l-324 408h-158v-408h-219v1434h219v-840h162l283 389h250l-357 -487z" />
    <glyph glyph-name="uni043B.loclBGR" horiz-adv-x="1122" 
d="M1098 0h-240l-297 745l-299 -745h-237l419 983h232z" />
    <glyph glyph-name="uni043F.loclBGR" horiz-adv-x="1204" 
d="M332 848q59 71 147.5 116.5t194.5 45.5q184 0 294.5 -112.5t110.5 -289.5v-608h-219v580q0 116 -63 175.5t-166 59.5q-86 0 -156.5 -47.5t-118.5 -116.5v-651h-219v983h195v-135z" />
    <glyph glyph-name="uni0442.loclBGR" horiz-adv-x="1810" 
d="M356 0h-219v983h195v-123q52 58 136 104t191 46t185.5 -42t122.5 -116q158 158 344 158q94 0 167 -33t117 -89.5t66 -126t22 -147.5v-614h-219v608q0 95 -52.5 151t-141.5 56q-133 0 -244 -133q4 -46 4 -68v-614h-219v608q0 95 -53 151t-142 56q-143 0 -260 -151v-664z
" />
    <glyph glyph-name="uni0446.loclBGR" horiz-adv-x="1275" 
d="M1069 227q0 -69 72 -69h73v-422h-200v256q-55 6 -95.5 39.5t-54.5 91.5q-60 -66 -146 -108t-186 -42q-191 0 -298 111.5t-107 290.5v608h219v-580q0 -118 59 -176.5t170 -58.5q86 0 156.5 47.5t118.5 116.5v651h219v-756z" />
    <glyph glyph-name="uni0448.loclBGR" horiz-adv-x="1810" 
d="M1454 983h219v-983h-194v123q-52 -58 -136.5 -104t-191.5 -46q-213 0 -307 158q-158 -158 -344 -158q-94 0 -167.5 33t-117 89.5t-66 126t-22.5 147.5v614h219v-608q0 -95 53 -151t142 -56q132 0 243 133q-4 46 -4 68v614h219v-608q0 -95 53 -151t142 -56q143 0 260 151
v664z" />
    <glyph glyph-name="uni0449.loclBGR" horiz-adv-x="1878" 
d="M1673 227q0 -69 72 -69h72v-422h-201v256q-53 6 -92 37.5t-54 85.5q-54 -56 -135 -99t-184 -43q-211 0 -307 158q-158 -158 -346 -158q-93 0 -166 33t-116.5 89.5t-66 126t-22.5 147.5v614h219v-606q0 -96 53 -152.5t142 -56.5q129 0 243 131q-4 46 -4 70v614h219v-606
q0 -96 53 -152.5t142 -56.5q143 0 260 151v664h219v-756z" />
    <glyph glyph-name="uni044E.loclBGR" horiz-adv-x="1697" 
d="M1622 492q0 -123 -44 -223.5t-118.5 -164t-169.5 -97.5t-200 -34q-125 0 -234 47t-188 146t-99 233h-213v-399h-219v1434h219v-850h213q20 134 99 233t188 146t234 47q105 0 200 -34t169.5 -97t118.5 -163.5t44 -223.5zM778 492q0 -145 86.5 -234.5t225.5 -89.5t224 89.5
t85 234.5t-85 234t-224 89q-140 0 -226 -89t-86 -234z" />
    <glyph glyph-name="uni0430.ss01" horiz-adv-x="1273" 
d="M940 156q-145 -183 -377 -183q-144 0 -256.5 71t-171.5 188.5t-59 259.5t59 259.5t171 188t257 70.5q231 0 377 -181v154h197v-983h-197v156zM297 492q0 -144 86 -235t219 -91q109 0 192 59.5t121 147.5v239q-38 86 -121 145.5t-192 59.5q-133 0 -219 -90.5t-86 -234.5z
" />
    <glyph glyph-name="uni0437.ss01" horiz-adv-x="962" 
d="M811 659q0 -196 -186 -297q130 -36 208 -138.5t78 -243.5q0 -109 -42.5 -197t-115 -144t-166.5 -86t-200 -30q-200 0 -352 92v197q141 -101 319 -101q94 0 168.5 28t122 91t47.5 152q0 128 -87 202t-230 43l-133 -30v186l149 33q205 52 205 223q0 93 -65.5 138.5
t-163.5 45.5q-165 0 -316 -94v193q161 90 348 90q81 0 154 -22.5t131 -65t92.5 -111t34.5 -154.5z" />
    <glyph glyph-name="uni0443.ss01" horiz-adv-x="1206" 
d="M1069 0q-2 -124 -46.5 -218t-119.5 -149.5t-166.5 -82.5t-197.5 -27q-103 0 -202.5 23t-168.5 63v194q62 -43 154 -65.5t188 -22.5q70 0 127.5 14t107.5 45t78 90.5t27 141.5v105q-58 -62 -140 -100t-178 -38q-191 0 -298 111.5t-107 290.5v608h219v-580
q0 -118 59 -176.5t170 -58.5q86 0 156.5 47.5t118.5 116.5v651h219v-983z" />
    <glyph glyph-name="zero.osf" horiz-adv-x="1349" 
d="M1264 532q0 -82 -23 -161.5t-71.5 -151.5t-116.5 -127t-165.5 -87t-211.5 -32q-142 0 -257.5 49t-186.5 129.5t-108.5 178.5t-37.5 202q0 82 23 162t71.5 152t117 126.5t166 87t212.5 32.5q114 0 211.5 -32.5t165.5 -87t116.5 -126.5t71.5 -152t23 -162zM322 532
q0 -144 94 -245t260 -101q165 0 258.5 101t93.5 245q0 92 -38.5 169.5t-120.5 127.5t-193 50q-166 0 -260 -101.5t-94 -245.5z" />
    <glyph glyph-name="one.osf" horiz-adv-x="919" 
d="M449 1065h172v-854h247v-211h-757v211h278v614l-278 -104v215z" />
    <glyph glyph-name="two.osf" horiz-adv-x="1112" 
d="M1014 0h-928v115q0 45 11 84.5t27 69t45 57.5t54 46t66 39.5t68.5 33.5t74.5 32t72 31q9 4 43.5 19t44.5 20t39 18.5t39.5 21.5t31.5 22t29.5 25.5t19.5 27t15 32t4 35.5q0 70 -64 111t-165 41q-196 0 -408 -127v225q207 113 434 113q120 0 218 -40t158.5 -121.5
t60.5 -191.5q0 -38 -7.5 -72t-24.5 -62.5t-34 -52t-47 -46.5t-50.5 -38t-58 -34.5t-57.5 -29t-59 -27.5q-27 -13 -78 -35.5t-77.5 -35t-59 -30.5t-49.5 -34t-23 -33l635 2v-211z" />
    <glyph glyph-name="three.osf" horiz-adv-x="1122" 
d="M983 711q0 -108 -56.5 -190t-150.5 -113q52 -16 97 -44t83.5 -70t61 -104.5t22.5 -138.5q0 -101 -44.5 -181t-118.5 -127.5t-163 -72t-186 -24.5q-129 0 -232 21.5t-210 68.5v221q103 -55 201.5 -77.5t222.5 -22.5q81 1 147 21.5t113 71.5t47 126q0 57 -21.5 99t-59.5 65
t-82.5 34t-96.5 11h-201v211l174 -2q103 -2 166.5 50t63.5 138q0 93 -72 146t-196 53q-191 0 -381 -103v217q183 97 413 97q199 0 329 -103.5t130 -277.5z" />
    <glyph glyph-name="four.osf" horiz-adv-x="1236" 
d="M719 1065h239v-905h226v-203h-226v-285h-225v285h-694v199zM733 160v592l-442 -592h442z" />
    <glyph glyph-name="five.osf" horiz-adv-x="1105" 
d="M174 1065h797v-209h-582l-20 -336q98 25 190 25q71 0 137 -14.5t128.5 -48t109 -83.5t74.5 -127t28 -172q0 -88 -29.5 -162.5t-80.5 -127.5t-119.5 -90.5t-146 -55.5t-160.5 -18q-220 0 -412 92v215q178 -96 385 -96q140 0 234 63.5t94 181.5q0 67 -27 116.5t-75 78
t-107 42t-129 13.5q-157 0 -334 -61z" />
    <glyph glyph-name="six.osf" horiz-adv-x="1239" 
d="M338 780q168 105 364 105q84 0 164.5 -29t147.5 -83t108 -141.5t41 -193.5q0 -112 -41 -202t-110.5 -146.5t-158 -86.5t-187.5 -30q-280 0 -424 186t-144 519q0 126 24.5 234.5t68.5 188.5t103 141.5t130 99.5t147 57.5t156 19.5q177 0 332 -82v-207q-146 82 -311 82
q-54 0 -105.5 -13t-103 -45t-92 -80t-70 -123.5t-39.5 -170.5zM336 565q19 -199 103 -295t214 -96q117 0 196 63.5t79 192.5q0 68 -25 118.5t-67.5 78t-91 40.5t-103.5 13q-169 0 -305 -115z" />
    <glyph glyph-name="seven.osf" horiz-adv-x="1034" 
d="M39 1065h967v-184l-551 -1209h-252l538 1184h-702v209z" />
    <glyph glyph-name="eight.osf" horiz-adv-x="1275" 
d="M143 1047q0 70 30.5 135t89 119t155 86t217.5 32q218 0 356.5 -116t141.5 -271q3 -206 -185 -338q234 -118 234 -329q0 -77 -31.5 -145.5t-94 -124.5t-169 -89t-244.5 -33q-257 0 -403 119.5t-146 292.5q0 103 60 202t170 163q-181 115 -181 297zM647 610q-72 25 -155 58
q-81 -49 -123.5 -118t-42.5 -138q2 -111 87 -174.5t234 -63.5q133 0 217 51.5t84 134.5q0 29 -6 53t-14.5 42t-30.5 36t-39.5 30t-56.5 29t-68 28t-86 32zM903 1004q0 91 -76 154t-198 63q-115 0 -186.5 -51.5t-71.5 -125.5q0 -84 60.5 -136t205.5 -103q7 -2 131 -43
q67 51 101 114.5t34 127.5z" />
    <glyph glyph-name="nine.osf" horiz-adv-x="1214" 
d="M63 627q0 111 41 201.5t110.5 147t158.5 86.5t188 30q280 0 423.5 -186t143.5 -519q0 -151 -35 -275.5t-95 -209.5t-141 -143.5t-170.5 -85.5t-186.5 -27q-176 0 -334 82v206q144 -81 311 -81q54 0 105.5 13t103 45t92 80t70 123.5t39.5 170.5q-165 -103 -363 -103
q-84 0 -165 29t-147.5 83t-107.5 140.5t-41 192.5zM573 891q-117 0 -195.5 -63.5t-78.5 -192.5q0 -68 25 -118.5t67.5 -78t91 -40.5t103.5 -13q163 0 303 113q-18 199 -102 296t-214 97z" />
    <glyph glyph-name="zero.sinf" horiz-adv-x="888" 
d="M823 213q0 -93 -22.5 -170.5t-67.5 -137t-119 -93t-170 -33.5t-170 33.5t-118.5 93t-67 137t-22.5 170.5t22.5 170.5t67 137t118.5 93t170 33.5t170 -33.5t119 -93t67.5 -137t22.5 -170.5zM233 213q0 -281 211 -281q209 0 209 281t-209 281q-109 0 -160 -70.5t-51 -210.5
z" />
    <glyph glyph-name="one.sinf" horiz-adv-x="598" 
d="M291 631h123v-684h147v-152h-491v152h178v512l-172 -62v156z" />
    <glyph glyph-name="two.sinf" horiz-adv-x="745" 
d="M88 561q118 86 285 86q136 0 218.5 -61.5t82.5 -179.5q0 -50 -19 -95t-55.5 -81.5t-72 -63t-83.5 -55.5q-11 -6 -33.5 -19.5t-32.5 -20t-29 -18t-28.5 -18.5t-23.5 -17.5t-21 -18t-15 -17t-11 -19t-4 -18.5l430 2v-152h-617v76q0 68 19.5 121.5t65 96.5t75 64t92.5 58
q15 9 23 14q5 3 26.5 15t27 15.5t23.5 14.5t23.5 15.5t19 15t18 17.5t13 17.5t11.5 20.5t5.5 22t2.5 25q0 93 -146 93q-141 0 -270 -97v162z" />
    <glyph glyph-name="three.sinf" horiz-adv-x="749" 
d="M653 416q0 -62 -30.5 -109.5t-77.5 -68.5q58 -25 99.5 -76.5t41.5 -134.5t-47 -140.5t-119 -82.5t-162 -25q-162 0 -290 57v160q117 -66 276 -66q182 0 182 113q0 107 -155 107h-138v151h117q144 0 144 96q0 99 -164 99q-128 0 -248 -72v160q117 63 270 63
q136 0 218.5 -60.5t82.5 -170.5z" />
    <glyph glyph-name="four.sinf" horiz-adv-x="821" 
d="M469 631h174v-527h133v-147h-133v-162h-162v162h-442v145zM481 104v312l-254 -312h254z" />
    <glyph glyph-name="five.sinf" horiz-adv-x="741" 
d="M121 631h524v-152h-369l-10 -155q50 12 103 12q64 0 118.5 -15t100 -46t72 -86.5t26.5 -129.5q0 -135 -100.5 -207.5t-249.5 -72.5q-154 0 -268 57v158q101 -64 247 -64q92 0 146.5 32t54.5 99q0 134 -215 134q-103 0 -209 -37z" />
    <glyph glyph-name="six.sinf" horiz-adv-x="804" 
d="M236 281q102 51 227 51q73 0 138.5 -29t110 -92t44.5 -148q0 -135 -91.5 -209.5t-226.5 -74.5q-372 0 -372 432q0 109 31 194t85.5 137t124.5 78.5t152 26.5q114 0 225 -49v-156q-100 56 -211 56q-56 0 -102.5 -18.5t-84.5 -69t-50 -129.5zM236 133q11 -113 59.5 -161
t130.5 -48q160 0 160 131q0 129 -172 129q-99 0 -178 -51z" />
    <glyph glyph-name="seven.sinf" horiz-adv-x="684" 
d="M330 -205h-183l318 684h-428v152h614v-137z" />
    <glyph glyph-name="eight.sinf" horiz-adv-x="827" 
d="M92 418q0 92 81.5 160.5t236.5 68.5q144 0 233 -70.5t92 -168.5q3 -113 -98 -193q127 -71 127 -197q0 -47 -20 -88.5t-59.5 -76t-108 -54.5t-158.5 -20q-172 0 -263.5 72.5t-91.5 177.5q0 57 32 114t93 97q-96 74 -96 178zM432 141q-8 3 -50.5 16.5t-66.5 22.5
q-43 -27 -63.5 -62.5t-20.5 -68.5q2 -60 52.5 -93.5t142.5 -33.5q71 0 120.5 23.5t49.5 66.5q0 27 -10.5 46.5t-35 34t-43.5 22t-57 20.5zM569 387q0 52 -43.5 84.5t-119.5 32.5q-65 0 -106.5 -23.5t-41.5 -60.5q0 -13 2.5 -25t9 -21.5t12 -17t18 -15.5t19.5 -12.5t24.5 -11
t24.5 -9.5t27.5 -10t26.5 -9q27 -6 86 -25q65 62 61 123z" />
    <glyph glyph-name="nine.sinf" horiz-adv-x="804" 
d="M49 362q0 135 91.5 210t226.5 75q372 0 372 -432q0 -213 -111.5 -324.5t-281.5 -111.5q-116 0 -227 49v156q100 -56 213 -56q56 0 102.5 18.5t84.5 69t50 129.5q-102 -51 -227 -51q-116 0 -204.5 71.5t-88.5 196.5zM379 502q-162 0 -162 -131q0 -129 172 -129
q104 0 180 51q-11 113 -59.5 161t-130.5 48z" />
    <glyph glyph-name="zero.sups" horiz-adv-x="888" 
d="M823 1190q0 -93 -22.5 -170.5t-67.5 -137t-119 -93t-170 -33.5t-170 33.5t-118.5 93t-67 137t-22.5 170.5t22.5 170.5t67 137t118.5 93t170 33.5t170 -33.5t119 -93t67.5 -137t22.5 -170.5zM233 1190q0 -281 211 -281q209 0 209 281q0 140 -51 210t-158 70
q-109 0 -160 -70t-51 -210z" />
    <glyph glyph-name="one.sups" horiz-adv-x="598" 
d="M291 1597h123v-684h147v-151h-491v151h178v512l-172 -61v156z" />
    <glyph glyph-name="two.sups" horiz-adv-x="745" 
d="M88 1538q118 86 285 86q136 0 218.5 -62t82.5 -180q0 -50 -19 -95t-55.5 -81.5t-72 -63t-83.5 -55.5q-12 -7 -33.5 -19.5t-32.5 -19.5t-29.5 -18t-28.5 -18.5t-23 -17.5t-20.5 -18t-15 -17t-11 -18.5t-4.5 -18.5l430 2v-152h-617v76q0 68 19.5 121.5t65 96.5t75 64
t92.5 58q15 9 23 14q5 3 26.5 15t27 15.5t23.5 14.5t23.5 15.5t19 15t18 17.5t13 17.5t11.5 20.5t5.5 22t2.5 25q0 93 -146 93q-141 0 -270 -97v162z" />
    <glyph glyph-name="three.sups" horiz-adv-x="749" 
d="M653 1393q0 -62 -30.5 -110t-77.5 -69q58 -25 99.5 -76t41.5 -134t-47 -140.5t-119 -82.5t-162 -25q-162 0 -290 57v160q117 -66 276 -66q182 0 182 113q0 59 -41 82.5t-114 23.5h-138v152h117q144 0 144 96q0 99 -164 99q-128 0 -248 -72v160q117 63 270 63
q136 0 218.5 -60.5t82.5 -170.5z" />
    <glyph glyph-name="four.sups" horiz-adv-x="821" 
d="M469 1597h174v-526h133v-147h-133v-162h-162v162h-442v145zM481 1071v311l-254 -311h254z" />
    <glyph glyph-name="five.sups" horiz-adv-x="741" 
d="M121 1597h524v-151h-369l-10 -156q54 13 103 13q64 0 118.5 -15t100 -46t72 -86.5t26.5 -129.5q0 -91 -49.5 -156t-127 -95t-173.5 -30q-152 0 -268 58v158q101 -64 247 -64q92 0 146.5 32t54.5 99q0 133 -215 133q-103 0 -209 -37z" />
    <glyph glyph-name="six.sups" horiz-adv-x="804" 
d="M236 1257q104 52 227 52q73 0 138.5 -29t110 -92t44.5 -148q0 -135 -91.5 -209.5t-226.5 -74.5q-372 0 -372 432q0 109 31 194t85.5 137t124.5 78.5t152 26.5q114 0 225 -49v-156q-100 56 -211 56q-88 0 -154 -51.5t-83 -166.5zM236 1110q11 -113 59.5 -161t130.5 -48
q160 0 160 131q0 129 -172 129q-99 0 -178 -51z" />
    <glyph glyph-name="seven.sups" horiz-adv-x="684" 
d="M330 762h-183l318 684h-428v151h614v-137z" />
    <glyph glyph-name="eight.sups" horiz-adv-x="827" 
d="M92 1395q0 92 81.5 160.5t236.5 68.5q144 0 233 -71t92 -169q3 -112 -98 -192q127 -71 127 -197q0 -47 -20 -88.5t-59.5 -76t-108 -54.5t-158.5 -20q-172 0 -263.5 72.5t-91.5 177.5q0 57 32 114t93 97q-96 74 -96 178zM432 1118q-8 3 -50.5 16.5t-66.5 22.5
q-43 -27 -63.5 -62.5t-20.5 -68.5q2 -60 52.5 -93.5t142.5 -33.5q71 0 120.5 23.5t49.5 66.5q0 27 -10.5 46.5t-35 34t-43.5 22t-57 20.5zM569 1364q0 52 -43.5 84.5t-119.5 32.5q-65 0 -106.5 -23.5t-41.5 -60.5q0 -13 2.5 -25t9 -21.5t12 -17t18 -15.5t19.5 -12.5
t24.5 -11t24.5 -9.5t27.5 -10t26.5 -9q27 -6 86 -25q65 62 61 123z" />
    <glyph glyph-name="nine.sups" horiz-adv-x="804" 
d="M49 1339q0 135 91.5 210t226.5 75q372 0 372 -432q0 -109 -31 -194t-85.5 -137t-124.5 -78.5t-152 -26.5q-116 0 -227 49v156q100 -56 213 -56q56 0 102.5 18.5t84.5 69t50 129.5q-102 -51 -227 -51q-116 0 -204.5 71.5t-88.5 196.5zM379 1479q-162 0 -162 -131
q0 -129 172 -129q104 0 180 51q-11 113 -59.5 161t-130.5 48z" />
    <glyph glyph-name="zero.tf" 
d="M1233 696q0 -155 -37 -285.5t-107.5 -228.5t-183 -153.5t-254.5 -55.5t-254 55.5t-183 153.5t-107.5 228.5t-36.5 285.5t36.5 285.5t107.5 228.5t183 153.5t254 55.5t254.5 -55.5t183 -153.5t107.5 -228.5t37 -285.5zM305 696q0 -244 89 -377t257 -133t257 133t89 377
t-89 377t-257 133t-257 -133t-89 -377z" />
    <glyph glyph-name="one.tf" 
d="M633 1393h172v-1182h414v-211h-1090v211h444v942l-376 -141v215z" />
    <glyph glyph-name="two.tf" 
d="M160 1278q222 141 481 141q230 0 368 -100.5t138 -290.5q0 -69 -21.5 -131t-55 -110t-86 -94t-104.5 -80.5t-120 -71.5q-173 -95 -225 -131q-144 -101 -146 -201l789 2v-211h-1051v106q0 69 15 131t41 111t62 92.5t77.5 78.5t88.5 66t93.5 57.5t93.5 51.5l12 6
q47 25 72.5 39.5t63 38t57.5 40.5t44.5 41.5t36.5 48t20.5 53.5t8.5 63q0 90 -75 137t-217 47q-230 0 -461 -155v225z" />
    <glyph glyph-name="three.tf" 
d="M1126 1038q0 -108 -56 -190t-150 -113q52 -16 97 -44t83.5 -70t61 -104t22.5 -138q0 -82 -28.5 -149.5t-78.5 -115t-119.5 -79.5t-151.5 -47t-175 -15q-273 0 -504 99v223q214 -114 485 -111q349 3 349 219q0 209 -310 209h-235v211l209 -2q136 -1 207 49.5t71 139.5
q0 95 -79.5 146.5t-235.5 51.5q-226 0 -436 -121v224q202 108 466 108q232 0 370 -102t138 -279z" />
    <glyph glyph-name="four.tf" 
d="M784 1393h240v-906h225v-202h-225v-285h-225v285h-756v198zM797 487v609l-494 -609h494z" />
    <glyph glyph-name="five.tf" 
d="M221 1393h899v-209h-684l-20 -338q107 26 237 26q88 0 164.5 -14.5t145 -47.5t117.5 -83.5t77.5 -126.5t28.5 -172q0 -146 -78.5 -250.5t-208.5 -154.5t-297 -50q-269 0 -467 95v219q177 -103 440 -103q175 0 275 63t100 183q0 250 -399 250q-195 0 -375 -62z" />
    <glyph glyph-name="six.tf" 
d="M340 770q191 115 405 115q92 0 177 -28.5t153.5 -82.5t110 -140.5t41.5 -193.5q0 -112 -41 -202t-111.5 -147t-163 -87.5t-198.5 -30.5q-310 0 -459.5 184t-149.5 521q0 189 50.5 333.5t139.5 232t204 131.5t252 44q191 0 360 -82v-213q-157 88 -338 88q-83 0 -153 -23
t-130.5 -72t-99 -137.5t-49.5 -209.5zM342 563q20 -204 109 -296.5t243 -92.5q132 0 214.5 63t82.5 193q0 69 -25 119t-70 77.5t-98.5 40.5t-117.5 13q-192 0 -338 -117z" />
    <glyph glyph-name="seven.tf" 
d="M109 1393h1095v-185l-598 -1208h-252l586 1184h-831v209z" />
    <glyph glyph-name="eight.tf" 
d="M127 1047q0 71 31 135.5t91.5 118.5t164 86t235.5 32q122 0 223 -32.5t166.5 -87t101.5 -123.5t38 -144q3 -203 -185 -338q234 -118 234 -329q0 -61 -20 -117t-65 -106.5t-110 -87.5t-161.5 -59t-213.5 -22q-144 0 -257 34t-182 92.5t-104.5 131t-35.5 154.5
q0 103 60 201.5t167 161.5q-178 115 -178 299zM676 602q-93 28 -201 66q-81 -49 -122.5 -117.5t-41.5 -138.5q2 -111 93 -175.5t266 -64.5q141 0 232 51t91 133q0 42 -18.5 77t-37.5 55.5t-71 44.5t-76 32t-96 31zM950 1004q0 94 -81.5 155.5t-227.5 61.5q-131 0 -208 -49.5
t-77 -122.5q0 -43 16.5 -77t43 -57.5t65 -42.5t77 -32.5t84.5 -27.5q16 -5 24 -7q80 -21 149 -43q66 51 100.5 115t34.5 127z" />
    <glyph glyph-name="nine.tf" 
d="M78 952q0 112 41 202t112.5 147t164 87.5t198.5 30.5q309 0 457.5 -184.5t148.5 -525.5q0 -149 -33 -271.5t-91.5 -208t-140 -144t-177 -85.5t-203.5 -27q-188 0 -360 82v213q157 -88 337 -88q84 0 154.5 23t130.5 72.5t98.5 138t49.5 209.5q-188 -113 -406 -113
q-73 0 -142 17.5t-131 53.5t-108 87.5t-73 124.5t-27 159zM610 1219q-132 0 -214.5 -63t-82.5 -193q0 -69 25.5 -119t70.5 -77.5t99 -40.5t119 -13q191 0 336 116q-20 204 -109.5 297t-243.5 93z" />
    <glyph glyph-name="zero.tosf" 
d="M1239 532q0 -82 -23 -161.5t-71.5 -151.5t-116.5 -127t-165.5 -87t-211.5 -32q-142 0 -257.5 49t-186.5 129.5t-108.5 178.5t-37.5 202q0 82 23 162t71.5 152t117 126.5t166 87t212.5 32.5q114 0 211.5 -32.5t165.5 -87t116.5 -126.5t71.5 -152t23 -162zM297 532
q0 -144 94 -245t260 -101q165 0 259 101t94 245t-94 245.5t-259 101.5q-166 0 -260 -101.5t-94 -245.5z" />
    <glyph glyph-name="one.tosf" 
d="M629 1065h172v-854h413v-211h-1089v211h444v614l-376 -141v215z" />
    <glyph glyph-name="two.tosf" 
d="M1163 0h-1036v115q0 43 10.5 81t26.5 68.5t44 58.5t53.5 48t65 40.5t68.5 33.5t74.5 28t72 23t70.5 20q164 44 236 88t72 121q0 74 -77.5 115t-213.5 41q-105 0 -227 -39t-228 -113v225q210 138 475 138q230 0 367 -95.5t137 -269.5q0 -72 -27 -128.5t-80.5 -97.5
t-114 -69.5t-147.5 -56.5q-25 -9 -84.5 -28.5t-91.5 -31t-75 -29.5t-68.5 -37t-38.5 -40l737 2v-211z" />
    <glyph glyph-name="three.tosf" 
d="M1118 711q0 -108 -56.5 -190t-150.5 -113q52 -16 97 -44t84 -70t61.5 -104.5t22.5 -138.5q0 -102 -43 -181t-118.5 -127t-172.5 -72.5t-211 -24.5q-283 0 -498 92v225q109 -60 222 -84t257 -22q158 2 249 54t91 165q0 209 -303 209h-227v211l203 -2q131 -1 200.5 49.5
t69.5 138.5q0 95 -78.5 147t-230.5 52q-229 0 -428 -115v223q195 103 460 103q227 0 363.5 -102t136.5 -279z" />
    <glyph glyph-name="four.tosf" 
d="M776 1065h240v-905h239v-203h-239v-285h-225v285h-756v199zM788 160v608l-493 -608h493z" />
    <glyph glyph-name="five.tosf" 
d="M229 1065h885v-209h-670l-20 -338q111 27 238 27q83 0 157 -14.5t141 -48t115 -84t76.5 -127t28.5 -171.5q0 -110 -45 -197.5t-123 -143t-180.5 -84.5t-221.5 -29q-271 0 -467 94v219q175 -102 441 -102q166 0 263 62t97 183q0 250 -385 250q-198 0 -375 -61z" />
    <glyph glyph-name="six.tosf" 
d="M340 770q191 115 405 115q92 0 177 -28.5t153.5 -82.5t110 -140.5t41.5 -193.5q0 -112 -41 -202t-111.5 -147t-163 -87.5t-198.5 -30.5q-209 0 -346.5 87t-200 243t-62.5 381q0 187 50.5 330t139.5 230t204 131t252 44q191 0 360 -82v-213q-157 88 -338 88
q-83 0 -153 -23t-130.5 -72t-99 -137.5t-49.5 -209.5zM342 563q20 -204 109 -296.5t243 -92.5q132 0 214.5 63t82.5 193q0 69 -25 119t-70 77.5t-98.5 40.5t-117.5 13q-192 0 -338 -117z" />
    <glyph glyph-name="seven.tosf" 
d="M109 1065h1095v-184l-598 -1209h-252l586 1184h-831v209z" />
    <glyph glyph-name="eight.tosf" 
d="M127 1047q0 71 31 135.5t91.5 118.5t164 86t235.5 32q122 0 223 -32.5t166.5 -87t101.5 -123.5t38 -144q3 -203 -185 -338q234 -118 234 -329q0 -61 -20 -117t-65 -106.5t-110 -87.5t-161.5 -59t-213.5 -22q-144 0 -257 34t-182 92.5t-104.5 131t-35.5 154.5
q0 103 60 201.5t167 161.5q-178 115 -178 299zM674 602q-93 28 -201 66q-81 -49 -122.5 -117.5t-41.5 -138.5q2 -111 93 -175.5t266 -64.5q141 0 232 51t91 133q0 42 -18.5 77t-37.5 55.5t-71 44.5t-76 32t-96 31zM948 1004q0 94 -81.5 155.5t-227.5 61.5q-131 0 -208 -49.5
t-77 -122.5q0 -43 16.5 -77t43 -57.5t65 -42.5t77 -32.5t84.5 -27.5q16 -5 24 -7q56 -15 149 -43q66 51 100.5 115t34.5 127z" />
    <glyph glyph-name="nine.tosf" 
d="M76 625q0 112 41 202t112.5 147t164 87.5t198.5 30.5q309 0 457.5 -185t148.5 -526q0 -150 -33 -272.5t-91.5 -207.5t-140 -143t-176.5 -85t-204 -27q-188 0 -360 82v213q157 -88 337 -88q66 0 124 13.5t112 46t94 82.5t67.5 126.5t35.5 173.5q-188 -113 -406 -113
q-92 0 -177 28.5t-153.5 82t-109.5 139.5t-41 193zM608 891q-132 0 -214.5 -63t-82.5 -193q0 -69 25.5 -119t70.5 -77.5t99 -40.5t119 -13q190 0 336 117q-20 204 -109.5 296.5t-243.5 92.5z" />
    <glyph glyph-name="zero.dnom" horiz-adv-x="888" 
d="M823 418q0 -93 -22.5 -170.5t-67.5 -137t-119 -93t-170 -33.5t-170 33.5t-118.5 93t-67 137t-22.5 170.5t22.5 170.5t67 137t118.5 93t170 33.5t170 -33.5t119 -93t67.5 -137t22.5 -170.5zM233 418q0 -281 211 -281q209 0 209 281q0 140 -51 210t-158 70q-109 0 -160 -70
t-51 -210z" />
    <glyph glyph-name="one.dnom" horiz-adv-x="598" 
d="M291 836h123v-684h147v-152h-491v152h178v512l-172 -62v156z" />
    <glyph glyph-name="two.dnom" horiz-adv-x="745" 
d="M88 766q118 86 285 86q136 0 218.5 -62t82.5 -180q0 -50 -19 -95t-55.5 -81.5t-72 -63t-83.5 -55.5q-12 -7 -33.5 -19.5t-32.5 -19.5t-29.5 -18t-28.5 -18.5t-23 -17.5t-20.5 -18t-15 -17t-11 -18.5t-4.5 -18.5l430 2v-152h-617v76q0 68 19.5 121.5t65 96.5t75 64
t92.5 58q15 9 23 14q5 3 26.5 15t27 15.5t23.5 14.5t23.5 15.5t19 15t18 17.5t13 17.5t11.5 20.5t5.5 22t2.5 25q0 92 -146 92q-142 0 -270 -96v162z" />
    <glyph glyph-name="three.dnom" horiz-adv-x="749" 
d="M653 621q0 -62 -30.5 -110t-77.5 -69q58 -25 99.5 -76.5t41.5 -134.5t-47 -140.5t-119 -82t-162 -24.5q-162 0 -290 57v160q117 -66 276 -66q182 0 182 113q0 59 -41 82.5t-114 23.5h-138v152h117q144 0 144 96q0 98 -164 98q-129 0 -248 -71v159q119 64 270 64
q136 0 218.5 -60.5t82.5 -170.5z" />
    <glyph glyph-name="four.dnom" horiz-adv-x="821" 
d="M469 836h174v-527h133v-147h-133v-162h-162v162h-442v145zM481 309v312l-254 -312h254z" />
    <glyph glyph-name="five.dnom" horiz-adv-x="741" 
d="M121 836h524v-152h-369l-10 -156q54 13 103 13q64 0 118.5 -15t100 -46t72 -86.5t26.5 -129.5q0 -135 -100.5 -207.5t-249.5 -72.5q-154 0 -268 57v158q101 -64 247 -64q92 0 146.5 32t54.5 99q0 133 -215 133q-103 0 -209 -37z" />
    <glyph glyph-name="six.dnom" horiz-adv-x="804" 
d="M236 485q104 52 227 52q73 0 138.5 -29t110 -92t44.5 -148q0 -135 -91.5 -209.5t-226.5 -74.5q-372 0 -372 432q0 109 31 194t85.5 137t124.5 78.5t152 26.5q114 0 225 -49v-156q-98 55 -211 55q-56 0 -102.5 -18.5t-84.5 -69t-50 -129.5zM236 338q11 -113 59.5 -161
t130.5 -48q160 0 160 131q0 129 -172 129q-99 0 -178 -51z" />
    <glyph glyph-name="seven.dnom" horiz-adv-x="684" 
d="M330 0h-183l318 684h-428v152h614v-138z" />
    <glyph glyph-name="eight.dnom" horiz-adv-x="827" 
d="M92 623q0 92 81.5 160.5t236.5 68.5q144 0 233 -71t92 -169q3 -112 -98 -192q127 -71 127 -197q0 -47 -20 -88.5t-59.5 -76t-108 -54.5t-158.5 -20q-172 0 -263.5 72.5t-91.5 176.5q0 57 32 114t93 97q-96 74 -96 179zM432 346q-8 3 -50.5 16.5t-66.5 22.5
q-43 -27 -63.5 -62.5t-20.5 -68.5q2 -60 52.5 -93.5t142.5 -33.5q71 0 120.5 23.5t49.5 66.5q0 27 -10.5 46.5t-35 34t-43.5 22t-57 20.5zM569 592q0 52 -43.5 84.5t-119.5 32.5q-65 0 -106.5 -23.5t-41.5 -60.5q0 -13 2.5 -25t9 -21.5t12 -17t18 -15.5t19.5 -12.5t24.5 -11
t24.5 -9.5t27.5 -10t26.5 -9q27 -6 86 -25q65 62 61 123z" />
    <glyph glyph-name="nine.dnom" horiz-adv-x="804" 
d="M49 567q0 135 91.5 210t226.5 75q372 0 372 -432q0 -109 -31 -194t-85.5 -137t-124.5 -78.5t-152 -26.5q-116 0 -227 49v155q98 -55 213 -55q56 0 102.5 18.5t84.5 69t50 129.5q-102 -51 -227 -51q-116 0 -204.5 71.5t-88.5 196.5zM379 707q-162 0 -162 -132
q0 -129 172 -129q103 0 180 52q-11 113 -59.5 161t-130.5 48z" />
    <glyph glyph-name="zero.numr" horiz-adv-x="888" 
d="M823 985q0 -93 -22.5 -170.5t-67.5 -137t-119 -93t-170 -33.5t-170 33.5t-118.5 93t-67 137t-22.5 170.5t22.5 170.5t67 137t118.5 93t170 33.5t170 -33.5t119 -93t67.5 -137t22.5 -170.5zM233 985q0 -280 211 -280q209 0 209 280q0 281 -209 281q-109 0 -160 -70.5
t-51 -210.5z" />
    <glyph glyph-name="one.numr" horiz-adv-x="598" 
d="M291 1393h123v-684h147v-152h-491v152h178v512l-172 -62v156z" />
    <glyph glyph-name="two.numr" horiz-adv-x="745" 
d="M88 1333q118 86 285 86q136 0 218.5 -61.5t82.5 -179.5q0 -50 -19 -95t-55.5 -81.5t-72 -63t-83.5 -55.5q-11 -6 -33.5 -19.5t-32.5 -20t-29 -18t-28.5 -18.5t-23.5 -17.5t-21 -18t-15 -17t-11 -19t-4 -18.5l430 2v-152h-617v76q0 68 19.5 121.5t65 96.5t75 64t92.5 58
q15 9 23 14q93 54 118 75q52 45 52 104q0 92 -146 92q-141 0 -270 -97v162z" />
    <glyph glyph-name="three.numr" horiz-adv-x="749" 
d="M653 1188q0 -62 -30.5 -109.5t-77.5 -68.5q58 -25 99.5 -76.5t41.5 -134.5t-47 -140.5t-119 -82.5t-162 -25q-162 0 -290 57v160q117 -66 276 -66q182 0 182 113q0 107 -155 107h-138v151h117q144 0 144 96q0 99 -164 99q-128 0 -248 -72v160q117 63 270 63
q136 0 218.5 -60.5t82.5 -170.5z" />
    <glyph glyph-name="four.numr" horiz-adv-x="821" 
d="M469 1393h174v-527h133v-147h-133v-162h-162v162h-442v145zM481 866v312l-254 -312h254z" />
    <glyph glyph-name="five.numr" horiz-adv-x="741" 
d="M121 1393h524v-152h-369l-10 -156q54 13 103 13q64 0 118.5 -15t100 -46t72 -86.5t26.5 -129.5q0 -135 -100.5 -207.5t-249.5 -72.5q-154 0 -268 57v158q101 -64 247 -64q92 0 146.5 32t54.5 99q0 133 -215 133q-106 0 -209 -36z" />
    <glyph glyph-name="six.numr" horiz-adv-x="804" 
d="M236 1053q102 51 227 51q116 0 204.5 -71.5t88.5 -196.5q0 -135 -91.5 -210t-226.5 -75q-372 0 -372 432q0 109 31 194t85.5 137t124.5 78.5t152 26.5q114 0 225 -49v-156q-100 56 -211 56q-56 0 -102.5 -18.5t-84.5 -69t-50 -129.5zM236 905q11 -113 59.5 -161
t130.5 -48q160 0 160 131q0 129 -172 129q-99 0 -178 -51z" />
    <glyph glyph-name="seven.numr" horiz-adv-x="684" 
d="M330 557h-183l318 684h-428v152h614v-138z" />
    <glyph glyph-name="eight.numr" horiz-adv-x="827" 
d="M92 1190q0 92 81.5 160.5t236.5 68.5q144 0 233 -70.5t92 -168.5q3 -113 -98 -193q127 -71 127 -196q0 -47 -20 -89t-59.5 -76.5t-108 -54.5t-158.5 -20q-172 0 -263.5 72.5t-91.5 177.5q0 57 32 114t93 97q-96 74 -96 178zM432 913q-8 3 -50.5 16.5t-66.5 22.5
q-43 -27 -63.5 -62.5t-20.5 -68.5q2 -60 52.5 -93.5t142.5 -33.5q71 0 120.5 23.5t49.5 66.5q0 27 -10.5 46.5t-35 34t-43.5 22t-57 20.5zM569 1159q0 52 -43.5 84.5t-119.5 32.5q-65 0 -106.5 -23.5t-41.5 -60.5q0 -13 2.5 -25t9 -21.5t12 -17t18 -15.5t19.5 -12.5
t24.5 -11t24.5 -9.5t27.5 -10t26.5 -9q27 -6 86 -25q65 62 61 123z" />
    <glyph glyph-name="nine.numr" horiz-adv-x="804" 
d="M49 1135q0 135 91.5 209.5t226.5 74.5q372 0 372 -432q0 -213 -111.5 -324.5t-281.5 -111.5q-116 0 -227 49v156q100 -56 213 -56q88 0 154 51.5t83 166.5q-104 -52 -227 -52q-73 0 -138.5 29t-110 92t-44.5 148zM379 1274q-162 0 -162 -131q0 -129 172 -129
q104 0 180 51q-11 113 -59.5 161t-130.5 48z" />
    <glyph glyph-name="emdash.case" horiz-adv-x="1585" 
d="M1456 618h-1327v197h1327v-197z" />
    <glyph glyph-name="endash.case" horiz-adv-x="1191" 
d="M1063 618h-934v197h934v-197z" />
    <glyph glyph-name="hyphen.case" horiz-adv-x="1003" 
d="M129 815h745v-197h-745v197z" />
    <glyph glyph-name="guillemotleft.case" horiz-adv-x="1107" 
d="M999 334h-227l-258 362v41l258 363h227l-270 -383zM578 334h-228l-258 362v41l258 363h228l-273 -383z" />
    <glyph glyph-name="guillemotright.case" horiz-adv-x="1107" 
d="M758 334h-228l271 383l-271 383h228l258 -363v-41zM336 334h-227l270 383l-270 383h227l258 -363v-41z" />
    <glyph glyph-name="guilsinglleft.case" horiz-adv-x="686" 
d="M578 334h-228l-258 362v41l258 363h228l-273 -383z" />
    <glyph glyph-name="guilsinglright.case" horiz-adv-x="686" 
d="M336 334h-227l270 383l-270 383h227l258 -363v-41z" />
    <glyph glyph-name="cent.tf" 
d="M844 172q125 12 227 72v-203q-101 -49 -227 -64v-223h-168v223q-73 8 -139.5 32t-125.5 66.5t-102.5 99.5t-68.5 136t-25 172q0 119 38.5 215t104 158.5t146.5 99.5t172 48v225h168v-225q118 -12 217 -70v-201q-93 65 -217 80v-641zM676 801q-106 -27 -172 -104t-66 -205
q0 -125 66.5 -204t171.5 -106v619z" />
    <glyph glyph-name="currency.tf" 
d="M434 373l-170 -170l-127 127l164 162q-68 93 -68 225t68 225l-164 164l127 127l170 -172q95 53 217 53q120 0 215 -53l172 172l125 -127l-162 -164q66 -91 66 -225t-66 -225l162 -162l-127 -127l-170 170q-97 -54 -215 -54q-120 0 -217 54zM434 717q0 -96 58.5 -153.5
t158.5 -57.5q99 0 157 57.5t58 153.5t-58 154.5t-157 58.5q-100 0 -158.5 -58.5t-58.5 -154.5z" />
    <glyph glyph-name="dollar.tf" 
d="M729 -266h-168v243q-234 21 -416 121v230q222 -142 506 -142q73 0 126.5 8t95.5 27t63.5 53.5t21.5 83.5q0 53 -28.5 93.5t-76.5 67t-110.5 48.5t-131.5 42.5t-137.5 43t-131 55t-110.5 74.5t-76.5 106.5t-28.5 145.5q0 117 59.5 201.5t155 128t219.5 53.5v242h168v-244
q207 -19 352 -104v-224q-87 58 -200.5 89.5t-229.5 29.5q-138 0 -211 -39t-73 -127q0 -50 28.5 -88t76.5 -63t110.5 -46.5t131 -41.5t137.5 -42.5t131.5 -56t110.5 -76t76.5 -108t28.5 -147.5q0 -101 -36.5 -177t-102 -121.5t-147.5 -69t-183 -28.5v-241z" />
    <glyph glyph-name="Euro.tf" 
d="M489 477q32 -70 87 -126t123 -91t144.5 -53.5t155.5 -18.5q120 0 232 39v-213q-134 -41 -273 -41q-160 0 -305.5 55t-260.5 171.5t-161 277.5h-184v162h156v57v58h-156v161h184q46 160 160.5 276.5t257 172t295.5 55.5q143 0 277 -41v-211q-107 37 -230 37
q-160 0 -298.5 -75t-203.5 -214h539v-161h-586q-2 -18 -2 -58q0 -39 2 -57h586v-162h-539z" />
    <glyph glyph-name="sterling.tf" 
d="M1212 0h-1126v205h66q64 0 102.5 47.5t38.5 122.5v215h-156v192h156v152q0 125 39.5 220t111 152t163.5 85t204 28q174 0 317 -76v-204q-133 88 -284 88q-152 0 -240 -73t-88 -224v-148h428v-192h-428v-215q0 -128 -63 -170h759v-205z" />
    <glyph glyph-name="yen.tf" 
d="M1008 1393h256l-412 -705h254v-168h-340v-110h340v-168h-340v-242h-234v242h-335v168h335v110h-335v168h252l-412 705h256l356 -654z" />
    </font>
</defs>
</svg>
